<?xml version="1.0" standalone="no"?>
<!DOCTYPE svg PUBLIC "-//W3C//DTD SVG 1.1//EN" "http://www.w3.org/Graphics/SVG/1.1/DTD/svg11.dtd" >
<svg xmlns="http://www.w3.org/2000/svg" xmlns:xlink="http://www.w3.org/1999/xlink" version="1.1">
<metadata>
Created by FontForge 20170731 at Fri Feb  3 12:11:30 2006
 By Aleksey,,,
Copyright 2004, ALDI SUED
</metadata>
<defs>
<font id="ALDISUEDOffice-Regular" horiz-adv-x="550" >
  <font-face 
    font-family="ALDI SUED Office"
    font-weight="400"
    font-stretch="normal"
    units-per-em="1000"
    panose-1="2 0 5 6 4 0 0 2 0 4"
    ascent="770"
    descent="-230"
    x-height="528"
    cap-height="667"
    bbox="-71 -252 1378 986"
    underline-thickness="50"
    underline-position="-150"
    unicode-range="U+0020-F6C3"
  />
<missing-glyph horiz-adv-x="485" 
d="M427 8v496h-369v-496h369zM50 512h385v-512h-385v512z" />
    <glyph glyph-name=".notdef" horiz-adv-x="485" 
d="M427 8v496h-369v-496h369zM50 512h385v-512h-385v512z" />
    <glyph glyph-name=".null" horiz-adv-x="0" 
 />
    <glyph glyph-name="nonmarkingreturn" horiz-adv-x="196" 
 />
    <glyph glyph-name="space" unicode=" " horiz-adv-x="196" 
 />
    <glyph glyph-name="exclam" unicode="!" horiz-adv-x="305" 
d="M196 202h-87l-14 465h115zM216 52q0 -27 -18.5 -45t-45.5 -18q-26 0 -44.5 18t-18.5 45q0 26 18.5 44.5t44.5 18.5q27 0 45.5 -18.5t18.5 -44.5z" />
    <glyph glyph-name="quotedbl" unicode="&#x22;" horiz-adv-x="356" 
d="M288 432h-60l-14 235h87zM127 432h-60l-13 235h87z" />
    <glyph glyph-name="numbersign" unicode="#" horiz-adv-x="562" 
d="M564 431h-105l-35 -169h105l-15 -70h-103l-37 -192h-84l37 192h-156l-37 -192h-84l37 192h-102l15 70h101l34 169h-103l15 71h102l32 165h84l-32 -165h157l32 165h83l-32 -165h104zM218 431l-34 -169h157l34 169h-157z" />
    <glyph glyph-name="dollar" unicode="$" 
d="M488 196q0 -85 -46.5 -129t-126.5 -55v-82h-78v78q-54 2 -98 10.5t-77 21.5l18 75q29 -11 73 -20t89 -9q30 0 55.5 5t44.5 16t29.5 29.5t10.5 45.5q0 30 -23 52t-58 40.5t-75 37t-75 42t-58 55.5t-23 78q0 74 44.5 117t122.5 50v74h78v-71q41 -2 77.5 -8.5t65.5 -14.5
l-17 -77q-26 8 -64 15t-84 7q-35 0 -58 -7t-36.5 -18.5t-19.5 -26.5t-6 -31q0 -32 23.5 -55.5t58.5 -42.5t75.5 -37.5t75.5 -41t58.5 -52t23.5 -71.5z" />
    <glyph glyph-name="percent" unicode="%" horiz-adv-x="1019" 
d="M971 222q0 -124 -40 -182t-136 -58t-135.5 58t-39.5 182q0 121 39.5 180t135.5 59t136 -59t40 -180zM398 449q0 -124 -39.5 -182.5t-135.5 -58.5t-135.5 58.5t-39.5 182.5q0 121 39.5 180t135.5 59t135.5 -59t39.5 -180zM886 222q0 40 -4 72.5t-14 55t-27.5 34.5
t-45.5 12t-45.5 -12t-27.5 -34.5t-14 -55t-4 -72.5q0 -42 4 -74.5t14 -55t27.5 -34.5t45.5 -12t45.5 12t27.5 34.5t14 55t4 74.5zM314 449q0 40 -4 72.5t-14 54.5t-27.5 34t-45.5 12t-45.5 -12t-28 -34t-14.5 -54.5t-4 -72.5q0 -42 4 -74.5t14.5 -55t28 -34.5t45.5 -12
t45.5 12t27.5 34.5t14 55t4 74.5zM362 -10h-85l380 690h84z" />
    <glyph glyph-name="ampersand" unicode="&#x26;" horiz-adv-x="593" 
d="M498 0l-55 61q-38 -37 -85.5 -54.5t-115.5 -17.5q-46 0 -86 12t-69.5 36t-46.5 61.5t-17 88.5q0 68 32.5 115.5t94.5 76.5q-14 14 -28 30t-25.5 34.5t-18.5 40.5t-7 49q0 36 13.5 63.5t37 45.5t55 27t67.5 9q37 0 69.5 -8.5t57 -25t38.5 -42.5t14 -60q0 -39 -13 -68.5
t-33 -51.5t-43.5 -38t-44.5 -28l155 -175q18 27 27 62.5t10 67.5h83q-1 -27 -6.5 -54.5t-14.5 -52.5t-20 -46t-22 -36l111 -122h-114zM338 529q0 9 -3.5 22t-13.5 25t-28.5 20.5t-48.5 8.5q-14 0 -29 -3.5t-27.5 -11.5t-20.5 -23t-8 -37q0 -11 3 -20.5t10 -20.5t18.5 -25
t28.5 -35l16 -19q15 7 33 19t33.5 27t26 33.5t10.5 39.5zM202 323q-41 -17 -64.5 -52t-23.5 -80q0 -62 37 -96t96 -34q48 0 85 15t57 41z" />
    <glyph glyph-name="quotesingle" unicode="'" horiz-adv-x="196" 
d="M127 432h-60l-13 235h87z" />
    <glyph glyph-name="parenleft" unicode="(" horiz-adv-x="321" 
d="M256 -167q-107 102 -157 217.5t-50 234.5t50 234.5t157 216.5l55 -50q-73 -80 -117 -184t-44 -217t44 -217.5t117 -183.5z" />
    <glyph glyph-name="parenright" unicode=")" horiz-adv-x="321" 
d="M272 284q0 -119 -50 -234.5t-157 -216.5l-55 50q73 80 117 184t44 217t-44 217.5t-117 183.5l55 51q107 -102 157 -217.5t50 -234.5z" />
    <glyph glyph-name="asterisk" unicode="*" horiz-adv-x="417" 
d="M261 483l89 -104l-67 -47l-77 112l-77 -112l-66 47l87 104l-117 32l26 76l112 -44l-7 132h85l-9 -132l118 44l25 -76z" />
    <glyph glyph-name="plus" unicode="+" 
d="M317 302v-190h-85v190h-185v75h185v190h85v-190h185v-75h-185z" />
    <glyph glyph-name="comma" unicode="," horiz-adv-x="233" 
d="M176 43q0 -20 -9 -40.5t-23 -43.5q-13 -22 -29 -44.5t-30 -42.5l-40 25q11 17 23.5 41t12.5 43q0 9 -3.5 16.5t-7.5 15.5t-7.5 17t-3.5 23q0 25 16.5 40.5t39.5 15.5q28 0 44.5 -18.5t16.5 -47.5z" />
    <glyph glyph-name="hyphen" unicode="-" horiz-adv-x="378" 
d="M52 246v78h273v-78h-273z" />
    <glyph glyph-name="hyphen" unicode="&#x2010;" horiz-adv-x="378" 
d="M52 246v78h273v-78h-273z" />
    <glyph glyph-name="hyphen" unicode="&#xad;" horiz-adv-x="378" 
d="M52 246v78h273v-78h-273z" />
    <glyph glyph-name="period" unicode="." horiz-adv-x="237" 
d="M181 52q0 -27 -18 -45t-45 -18q-26 0 -44.5 18t-18.5 45q0 26 18.5 44.5t44.5 18.5q27 0 45 -18.5t18 -44.5z" />
    <glyph glyph-name="slash" unicode="/" horiz-adv-x="363" 
d="M95 -20h-88l260 707h88z" />
    <glyph glyph-name="zero" unicode="0" 
d="M506 334q0 -176 -56.5 -260.5t-174.5 -84.5t-174.5 84.5t-56.5 260.5t56.5 260t174.5 84t174.5 -84t56.5 -260zM408 334q0 63 -6.5 113t-22 85t-41 53.5t-63.5 18.5t-63.5 -18.5t-41 -53.5t-22 -85t-6.5 -113t6.5 -113.5t22 -86t41 -54t63.5 -18.5t63.5 18.5t41 53.5
t22 85.5t6.5 114.5z" />
    <glyph glyph-name="one" unicode="1" 
d="M269 0v552l-135 -99l-46 64l204 150h72v-667h-95z" />
    <glyph glyph-name="two" unicode="2" 
d="M76 0v72q38 40 88.5 87.5t96.5 101t77.5 112t31.5 118.5q0 54 -31 80t-85 26q-21 0 -41 -4.5t-39 -11.5t-35 -15t-28 -15l-31 70q16 10 37.5 20t46 18.5t51 13.5t53.5 5q91 0 145.5 -42.5t54.5 -127.5q0 -63 -28 -123t-70.5 -114t-91.5 -101.5t-91 -86.5h286v-83h-397z
" />
    <glyph glyph-name="three" unicode="3" 
d="M463 186q0 -50 -17 -87t-47.5 -61.5t-72 -36.5t-89.5 -12q-67 0 -114 13t-88 38l30 72q37 -23 76 -33.5t88 -10.5q30 0 55 6t42.5 20t27.5 37t10 57q0 40 -15.5 64t-41 36t-57.5 15.5t-66 3.5v72q34 0 64 5.5t52.5 20t36 38.5t13.5 60q0 29 -10 47.5t-26.5 29t-38.5 14.5
t-45 4q-38 0 -79 -13.5t-67 -31.5l-29 70q35 23 85 39t107 16q45 0 82 -11t64 -32t41.5 -52.5t14.5 -72.5q0 -65 -34 -106t-87 -58q63 -11 99 -53.5t36 -106.5z" />
    <glyph glyph-name="four" unicode="4" 
d="M442 105v-105h-94v105h-298l-5 60l231 521l82 -41l-211 -465h202v159h93v-160h82v-74h-82z" />
    <glyph glyph-name="five" unicode="5" 
d="M486 215q0 -61 -18.5 -104t-50 -70t-74 -39.5t-90.5 -12.5q-63 0 -115.5 14.5t-84.5 36.5l30 72q32 -21 73.5 -32.5t84.5 -11.5q29 0 55.5 6t46.5 22t32 44t12 73q0 31 -8 57.5t-25 46t-42.5 31t-60.5 11.5q-27 0 -47.5 -5.5t-35.5 -13t-24.5 -16t-13.5 -13.5l-53 17
l37 339h84h255l-13 -82h-252l-22 -181q21 15 51 23.5t67 8.5q42 0 78.5 -13.5t64 -41.5t43.5 -69.5t16 -96.5z" />
    <glyph glyph-name="six" unicode="6" 
d="M501 216q0 -55 -17.5 -97.5t-47.5 -71t-69.5 -43.5t-83.5 -15t-84.5 13t-72.5 44t-51 82t-19 127q0 73 24 139t66.5 121.5t100.5 98t126 68.5l32 -67q-30 -12 -63.5 -33t-65.5 -49.5t-59.5 -65t-45.5 -79.5q7 6 18 15t27 16.5t36 13t45 5.5q44 0 81.5 -15.5t64.5 -44.5
t42.5 -70t15.5 -92zM403 216q0 78 -33.5 114.5t-88.5 36.5q-56 0 -91.5 -36.5t-35.5 -114.5q0 -77 36.5 -114.5t92.5 -37.5t88 37t32 115z" />
    <glyph glyph-name="seven" unicode="7" 
d="M211 0h-107l275 585h-327l-13 82h442v-74z" />
    <glyph glyph-name="eight" unicode="8" 
d="M500 172q0 -42 -16.5 -76t-46.5 -58t-71.5 -36.5t-92.5 -12.5q-104 0 -165 47.5t-61 135.5q0 39 13 68t33 50.5t44.5 36t48.5 23.5q-22 10 -43 23.5t-37.5 32t-26.5 44t-10 60.5q0 40 16.5 71t44.5 52.5t65 33t78 11.5q42 0 79 -10t65 -30t44.5 -51.5t16.5 -73.5
q0 -32 -10 -57.5t-26 -45.5t-36 -35t-40 -26q22 -9 46 -22.5t43.5 -34t32 -50t12.5 -70.5zM383 511q0 46 -30.5 69.5t-79.5 23.5t-78 -23.5t-29 -68.5q0 -50 34.5 -81t82.5 -46q13 6 30.5 16.5t33 25.5t26 36t10.5 48zM402 169q0 35 -14.5 59t-35.5 40.5t-45 27t-44 16.5
q-19 -7 -40 -18t-38.5 -28t-29 -41t-11.5 -56q0 -54 36 -80.5t93 -26.5t93 27t36 80z" />
    <glyph glyph-name="nine" unicode="9" 
d="M489 411q0 -73 -24 -139t-66.5 -121.5t-100.5 -98t-126 -67.5l-32 67q30 12 63.5 33t65.5 49.5t59.5 64.5t45.5 79l-17.5 -15t-25.5 -16.5t-35 -13t-44 -5.5q-44 0 -82 15.5t-66 44.5t-44 70t-16 92q0 55 17.5 97.5t47.5 71.5t69.5 44t83.5 15q43 0 84 -13t73 -44
t51 -82.5t19 -127.5zM391 450q0 39 -10 67.5t-27 47t-40.5 28t-51.5 9.5q-56 0 -88 -37t-32 -115t34.5 -114.5t89.5 -36.5q56 0 90.5 36.5t34.5 114.5z" />
    <glyph glyph-name="colon" unicode=":" horiz-adv-x="236" 
d="M180 418q0 -27 -18 -45t-44 -18t-45 18t-19 45q0 26 19 44t45 18t44 -18t18 -44zM180 51q0 -26 -18 -44t-44 -18t-45 18t-19 44t19 44.5t45 18.5t44 -18.5t18 -44.5z" />
    <glyph glyph-name="semicolon" unicode=";" horiz-adv-x="237" 
d="M180 418q0 -27 -18 -45t-44 -18t-45 18t-19 45q0 26 19 44t45 18t44 -18t18 -44zM177 43q0 -20 -9 -40.5t-23 -43.5q-13 -22 -29 -44.5t-30 -42.5l-40 25q11 17 23.5 41t12.5 43q0 9 -3.5 16.5t-7.5 15.5t-7.5 17t-3.5 23q0 25 16.5 40.5t39.5 15.5q28 0 44.5 -18.5
t16.5 -47.5z" />
    <glyph glyph-name="semicolon" unicode="&#x37e;" horiz-adv-x="237" 
d="M180 418q0 -27 -18 -45t-44 -18t-45 18t-19 45q0 26 19 44t45 18t44 -18t18 -44zM177 43q0 -20 -9 -40.5t-23 -43.5q-13 -22 -29 -44.5t-30 -42.5l-40 25q11 17 23.5 41t12.5 43q0 9 -3.5 16.5t-7.5 15.5t-7.5 17t-3.5 23q0 25 16.5 40.5t39.5 15.5q28 0 44.5 -18.5
t16.5 -47.5z" />
    <glyph glyph-name="less" unicode="&#x3c;" 
d="M55 311v66l434 192v-80l-323 -144l323 -147v-80z" />
    <glyph glyph-name="equal" unicode="=" 
d="M68 400v74h413v-74h-413zM68 205v74h413v-74h-413z" />
    <glyph glyph-name="greater" unicode="&#x3e;" 
d="M61 118v80l323 146l-323 145v80l434 -193v-65z" />
    <glyph glyph-name="question" unicode="?" horiz-adv-x="418" 
d="M119 203q1 35 12.5 60.5t28.5 46.5t37 40t37 40t28 47t11 61q0 43 -22.5 70t-70.5 27q-44 0 -78.5 -16.5t-52.5 -29.5l-34 71q12 8 30 18t40 19t48.5 15t55.5 6q84 0 134 -42t50 -130q0 -44 -12 -75.5t-30.5 -55.5t-40 -43.5t-40 -38.5t-31.5 -40.5t-14 -49.5h-86z
M226 51q0 -26 -18.5 -44t-44.5 -18t-44.5 18t-18.5 44t18.5 44.5t44.5 18.5t44.5 -18.5t18.5 -44.5z" />
    <glyph glyph-name="at" unicode="@" horiz-adv-x="946" 
d="M902 254q0 -87 -23 -139t-54 -80t-63.5 -37t-51.5 -9q-28 0 -49.5 8.5t-37.5 21t-26.5 27.5t-15.5 28q-7 -12 -20.5 -26.5t-32 -27.5t-41 -22t-47.5 -9q-28 0 -57.5 9t-54 34.5t-40 70.5t-15.5 117t15.5 118t40 73t54.5 37t59 10q24 0 44.5 -7t36.5 -17.5t28 -22
t20 -20.5l5 57h68v-280q0 -24 3.5 -44.5t12 -35.5t22 -23.5t34.5 -8.5q48 0 75.5 52.5t27.5 145.5q0 81 -22 146t-65 111t-106.5 71t-145.5 25q-78 0 -143 -28.5t-111.5 -79t-72 -119t-25.5 -149.5q0 -87 23 -156.5t68.5 -118.5t113.5 -75.5t159 -26.5q79 0 129 13t69 20
l27 -66q-8 -4 -28 -10.5t-50 -13t-67.5 -11t-80.5 -4.5q-108 0 -191 32t-140 90.5t-86.5 141.5t-29.5 184q0 94 32 176t89.5 143t137 95.5t173.5 34.5q101 0 180 -30.5t134 -86t83.5 -134t28.5 -174.5zM564 314q-6 8 -16 21t-23.5 25t-31.5 20.5t-39 8.5q-49 0 -72 -38
t-23 -127q0 -88 22 -128t74 -40q20 0 36 7.5t29.5 19.5t24 27t19.5 31v173z" />
    <glyph glyph-name="A" unicode="A" horiz-adv-x="569" 
d="M448 0l-42 131h-247l-43 -131h-100l215 667h108l214 -667h-105zM283 547l-104 -340h207z" />
    <glyph glyph-name="B" unicode="B" horiz-adv-x="565" 
d="M522 180q0 -90 -62.5 -135t-209.5 -45h-169v667h160q63 0 111.5 -6t82.5 -23.5t51.5 -50t17.5 -85.5q0 -65 -33.5 -106.5t-96.5 -49.5q32 -3 59 -11.5t47 -27.5t31 -49.5t11 -77.5zM404 486q0 33 -9.5 53.5t-30.5 32.5t-54 16t-81 4h-51v-213h61q44 0 75 5t51 17
t29.5 32.5t9.5 52.5zM422 191q0 31 -10 53t-32.5 36.5t-59.5 21.5t-91 7h-51v-235h53q53 0 89.5 5t59 18.5t32.5 36t10 57.5z" />
    <glyph glyph-name="C" unicode="C" horiz-adv-x="506" 
d="M480 22q-32 -14 -74.5 -24t-97.5 -10q-69 0 -117.5 21.5t-79 65t-44.5 108t-14 151.5q0 85 14 149.5t44.5 108t79.5 65.5t118 22q59 0 98 -12t63 -22l-26 -76q-23 10 -53 19t-70 9q-48 0 -80 -18t-52 -51.5t-28.5 -82.5t-8.5 -111q0 -61 8 -109.5t27.5 -82.5t52 -52.5
t80.5 -18.5q40 0 73.5 8.5t62.5 19.5z" />
    <glyph glyph-name="D" unicode="D" horiz-adv-x="586" 
d="M532 334q0 -108 -19 -173.5t-56 -101t-91 -47.5t-124 -12h-161v667h161q70 0 124 -12t91 -47.5t56 -101t19 -172.5zM433 334q0 77 -11.5 126.5t-34 78t-57.5 39.5t-81 11h-71v-512h71q46 0 81 11t57.5 40t34 78.5t11.5 127.5z" />
    <glyph glyph-name="E" unicode="E" horiz-adv-x="492" 
d="M81 0v667h376l-13 -83h-266v-201h213v-77h-213v-224h270l13 -82h-380z" />
    <glyph glyph-name="F" unicode="F" horiz-adv-x="462" 
d="M436 583h-258v-207h214v-77h-214v-299h-97v667h368z" />
    <glyph glyph-name="G" unicode="G" horiz-adv-x="574" 
d="M514 33q-33 -17 -82 -31t-117 -14q-141 0 -201 87t-60 259q0 85 15 149.5t46.5 108t81 65.5t119.5 22q60 0 106.5 -15t77.5 -31l-29 -74q-29 14 -67 25.5t-76 11.5q-51 0 -84.5 -17.5t-53.5 -51t-28 -82.5t-8 -111q0 -61 8.5 -109.5t29 -83t54.5 -53t85 -18.5
q26 0 49 4.5t43 12.5v207h-88l-10 77h189v-338z" />
    <glyph glyph-name="H" unicode="H" horiz-adv-x="641" 
d="M464 0v303h-286v-303h-97v667h97v-283h286v283h96v-667h-96z" />
    <glyph glyph-name="I" unicode="I" horiz-adv-x="259" 
d="M81 0v667h97v-667h-97z" />
    <glyph glyph-name="J" unicode="J" horiz-adv-x="262" 
d="M181 42q0 -47 -8.5 -78t-25 -50t-40 -27t-53.5 -8q-25 0 -40.5 4t-24.5 7l14 70q5 -2 12 -3.5t16 -1.5q13 0 23 4t16.5 15.5t10 33t3.5 56.5v603h97v-625z" />
    <glyph glyph-name="K" unicode="K" horiz-adv-x="529" 
d="M407 0l-229 311v-311h-97v667h97v-289l218 289h110l-246 -320l266 -347h-119z" />
    <glyph glyph-name="L" unicode="L" horiz-adv-x="433" 
d="M81 0v667h97v-582h233l12 -85h-342z" />
    <glyph glyph-name="M" unicode="M" horiz-adv-x="699" 
d="M552 0l-44 482l-124 -351h-77l-124 351l-44 -482h-92l61 667h93l147 -413l149 413h94l61 -667h-100z" />
    <glyph glyph-name="N" unicode="N" horiz-adv-x="613" 
d="M428 0l-258 518v-518h-89v667h103l259 -521v521h89v-667h-104z" />
    <glyph glyph-name="O" unicode="O" horiz-adv-x="618" 
d="M564 334q0 -177 -65 -261.5t-190 -84.5q-126 0 -190.5 84.5t-64.5 261.5q0 176 64.5 260.5t190.5 84.5q125 0 190 -84.5t65 -260.5zM464 334q0 61 -9 110.5t-27.5 84t-48 53t-70.5 18.5t-70.5 -18.5t-48.5 -53t-28 -84t-9 -110.5q0 -62 9 -112t28 -84.5t48.5 -53
t70.5 -18.5q82 0 118.5 71.5t36.5 196.5z" />
    <glyph glyph-name="P" unicode="P" horiz-adv-x="548" 
d="M512 465q0 -205 -250 -205h-84v-260h-97v667h180q134 0 192.5 -50t58.5 -152zM412 465q0 70 -39.5 97t-114.5 27h-80v-253h80q82 0 118 30t36 99z" />
    <glyph glyph-name="Q" unicode="Q" horiz-adv-x="616" 
d="M563 334q0 -103 -22.5 -173t-64.5 -112q-14 -14 -30 -23.5t-33 -16.5q5 -2 14 -9.5t25 -24.5q11 -12 19 -19t13 -10t9 -3.5t8 -0.5q8 0 14.5 2t9.5 4l30 -70q-11 -5 -26.5 -10t-39.5 -5q-23 0 -50 17t-55 49q-20 21 -38 40.5t-42 19.5q-123 0 -187.5 84t-64.5 261
q0 176 65 260.5t191 84.5q125 0 190 -84.5t65 -260.5zM463 334q0 61 -9 110.5t-27.5 84t-48 53t-70.5 18.5t-70.5 -18.5t-48.5 -53t-28 -84t-9 -110.5q0 -62 9 -112t28 -84.5t48.5 -53t70.5 -18.5t70.5 18.5t48 53t27.5 84.5t9 112z" />
    <glyph glyph-name="R" unicode="R" horiz-adv-x="563" 
d="M425 0l-200 288h-47v-288h-97v667h174q58 0 105 -8t79.5 -29t50 -58t17.5 -95q0 -44 -14.5 -77t-39.5 -55.5t-58.5 -35t-71.5 -15.5l223 -294h-121zM404 477q0 32 -7.5 54t-25 35t-46 18.5t-71.5 5.5h-76v-230h79q80 0 113.5 26.5t33.5 90.5z" />
    <glyph glyph-name="S" unicode="S" horiz-adv-x="478" 
d="M446 178q0 -50 -16.5 -86t-46.5 -59t-72 -34t-93 -11q-57 0 -106 9t-83 23l17 75q29 -11 70.5 -21t88.5 -10q24 0 48 5t43.5 16.5t32 30.5t12.5 48q0 30 -22.5 54t-56.5 46.5t-73 45.5t-73 51t-56.5 63t-22.5 82q0 46 17 79t46 54t66.5 30.5t79.5 9.5q48 0 93 -7t79 -18
l-16 -76q-25 8 -63.5 16t-83.5 8q-20 0 -40.5 -5t-37.5 -16t-27.5 -27.5t-10.5 -39.5q0 -32 22.5 -57.5t57 -49t74 -46t74 -49t57 -59t22.5 -75.5z" />
    <glyph glyph-name="T" unicode="T" horiz-adv-x="450" 
d="M427 585h-155v-585h-97v585h-155l-12 82h431z" />
    <glyph glyph-name="U" unicode="U" horiz-adv-x="601" 
d="M527 285q0 -77 -9.5 -133t-35 -92.5t-69.5 -54t-113 -17.5t-112.5 17.5t-69 54t-35 92.5t-9.5 133v382h97v-392q0 -51 4.5 -90.5t18 -66.5t39.5 -40.5t68 -13.5t67.5 13.5t39 40.5t18 66.5t4.5 90.5v392h97v-382z" />
    <glyph glyph-name="V" unicode="V" horiz-adv-x="535" 
d="M318 0h-101l-206 667h105l154 -540l154 540h100z" />
    <glyph glyph-name="W" unicode="W" horiz-adv-x="713" 
d="M560 0h-93l-109 413l-113 -413h-92l-123 666h103l83 -485l97 357h97l88 -357l92 485h93z" />
    <glyph glyph-name="X" unicode="X" horiz-adv-x="563" 
d="M436 0l-155 283l-160 -283h-108l209 347l-190 320h113l136 -255l137 255h110l-186 -320l210 -347h-116z" />
    <glyph glyph-name="Y" unicode="Y" horiz-adv-x="539" 
d="M318 278v-278h-97v278l-221 389h108l164 -303l163 303h104z" />
    <glyph glyph-name="Z" unicode="Z" horiz-adv-x="491" 
d="M35 0v75l308 510h-296v82h400v-76l-307 -510h316v-81h-421z" />
    <glyph glyph-name="bracketleft" unicode="[" horiz-adv-x="278" 
d="M91 -208v1029h180v-73h-98v-883h98v-73h-180z" />
    <glyph glyph-name="backslash" unicode="\" horiz-adv-x="363" 
d="M267 -20l-260 707h88l260 -707h-88z" />
    <glyph glyph-name="bracketright" unicode="]" horiz-adv-x="278" 
d="M7 -208v73h97v883h-97v73h180v-1029h-180z" />
    <glyph glyph-name="asciicircum" unicode="^" horiz-adv-x="562" 
d="M432 463l-149 121l-154 -121l-43 43l169 161h56l165 -162z" />
    <glyph glyph-name="underscore" unicode="_" horiz-adv-x="418" 
d="M-3 -146v73h424v-73h-424z" />
    <glyph glyph-name="grave" unicode="`" horiz-adv-x="464" 
d="M271 604l-174 136l59 70l153 -159z" />
    <glyph glyph-name="a" unicode="a" horiz-adv-x="520" 
d="M370 0l-9 78q-12 -16 -28 -32t-36.5 -28.5t-47.5 -20t-61 -7.5q-30 0 -57.5 8.5t-48.5 27t-33.5 47.5t-12.5 70q0 53 20 88.5t58.5 57t93.5 30.5t124 9h26v17q0 60 -23 89t-89 29q-45 0 -89 -9.5t-79 -20.5l-16 68q43 15 94.5 26t102.5 11q94 0 143.5 -41.5t49.5 -140.5
v-356h-82zM358 265h-43q-99 0 -142 -27.5t-43 -81.5q0 -39 18 -65t69 -26q29 0 52 9t40.5 22t29.5 27t19 24v118z" />
    <glyph glyph-name="b" unicode="b" horiz-adv-x="572" 
d="M527 263q0 -76 -16.5 -128t-43.5 -84.5t-61 -46.5t-68 -14q-46 0 -88.5 14.5t-88.5 49.5l-8 -54h-81v729h93v-290q42 52 91.5 75t94.5 23q33 0 64.5 -14t56 -46t40 -84.5t15.5 -129.5zM429 260q0 102 -26 148t-87 46q-20 0 -42 -9t-42.5 -23.5t-38 -33.5t-28.5 -38v-223
q30 -26 67.5 -44t78.5 -18q60 0 89 46t29 149z" />
    <glyph glyph-name="c" unicode="c" horiz-adv-x="423" 
d="M418 25q-27 -13 -66 -24t-94 -11q-213 0 -213 274q0 136 53 205t160 69q55 0 90 -11.5t60 -23.5l-25 -71q-22 11 -49.5 19.5t-61.5 8.5q-71 0 -100.5 -48t-29.5 -148t29.5 -148t99.5 -48q35 0 66.5 8.5t54.5 19.5z" />
    <glyph glyph-name="d" unicode="d" horiz-adv-x="573" 
d="M419 0l-8 91q-45 -55 -95 -78t-95 -23q-33 0 -64.5 13.5t-56 45.5t-40 84t-15.5 129q0 76 16.5 129t43.5 85t61 46.5t68 14.5q43 0 84.5 -12.5t89.5 -45.5v250h93v-729h-82zM408 393q-30 26 -67.5 44t-78.5 18q-60 0 -89 -43.5t-29 -145.5q0 -103 26.5 -149t87.5 -46
q20 0 42 9.5t42 25t37.5 35t28.5 39.5v213z" />
    <glyph glyph-name="e" unicode="e" horiz-adv-x="526" 
d="M481 268v-13t-1 -13h-338q0 -50 11.5 -83t31.5 -53.5t47 -29t58 -8.5q37 0 74.5 8.5t67.5 23.5l25 -69q-24 -14 -73 -27.5t-113 -13.5q-44 0 -84.5 13t-72 43.5t-50.5 81t-19 124.5t18 128t49 89t71.5 52t85.5 17q47 0 86 -17t67 -50.5t43.5 -84.5t15.5 -118zM383 305
q-2 45 -12 75t-26 49t-36.5 27t-43.5 8t-44.5 -9.5t-38.5 -29t-28 -49.5t-13 -71h242z" />
    <glyph glyph-name="f" unicode="f" horiz-adv-x="288" 
d="M281 656q-12 3 -26.5 6t-27.5 3q-33 0 -39 -18t-6 -57v-62h88l-11 -72h-77v-456h-93v456h-72l-7 72h79v62q0 33 4 60.5t16.5 48t35.5 32t60 11.5q29 0 50 -4t35 -8z" />
    <glyph glyph-name="g" unicode="g" horiz-adv-x="573" 
d="M502 528q0 -21 -1 -46t-1 -60v-399q0 -73 -16.5 -119.5t-47.5 -73.5t-74 -37.5t-97 -10.5q-20 0 -44.5 2.5t-49.5 7t-49 10t-42 11.5l15 70q18 -6 39 -10.5t42.5 -8t42 -5.5t38.5 -2q30 0 57 5t48 21t33 46.5t12 80.5v82q-42 -54 -91.5 -76.5t-94.5 -22.5
q-33 0 -64.5 13.5t-56.5 45t-40 83t-15 128.5q0 76 16.5 128.5t43.5 85t60.5 47t67.5 14.5q49 0 94 -17t84 -46l6 53h85zM407 391q-30 26 -67.5 45t-78.5 19q-60 0 -89 -43.5t-29 -145.5q0 -103 25.5 -148.5t87.5 -45.5q21 0 43 10t42.5 26t37.5 36.5t28 40.5v206z" />
    <glyph glyph-name="h" unicode="h" horiz-adv-x="578" 
d="M417 0v318q0 38 -3 64t-12 42.5t-26 23.5t-45 7q-22 0 -45 -8.5t-45 -22t-41.5 -29.5t-34.5 -30v-365h-93v729h93v-285q15 15 37.5 31.5t49 30.5t56 23t60.5 9q142 0 142 -166v-372h-93z" />
    <glyph glyph-name="i" unicode="i" horiz-adv-x="237" 
d="M178 684q-1 -25 -17.5 -42t-41.5 -17q-26 0 -43 17t-17 42t17 42.5t43 17.5q24 0 41.5 -17.5t17.5 -42.5zM72 0v528h93v-528h-93z" />
    <glyph glyph-name="j" unicode="j" horiz-adv-x="236" 
d="M177 684q0 -25 -17 -42t-42 -17q-26 0 -43 17t-17 42t17 42.5t43 17.5q24 0 41.5 -17.5t17.5 -42.5zM164 -83q0 -28 -3.5 -52.5t-14 -43t-30.5 -29t-53 -10.5q-28 0 -45.5 4.5t-35.5 11.5l17 66q7 -2 16 -4.5t20 -2.5q27 0 31.5 21.5t4.5 54.5v595h93v-611z" />
    <glyph glyph-name="k" unicode="k" horiz-adv-x="502" 
d="M393 0l-228 257v-257h-93v729h93v-416l212 215h113l-243 -238l265 -290h-119z" />
    <glyph glyph-name="l" unicode="l" horiz-adv-x="237" 
d="M72 0v729h93v-729h-93z" />
    <glyph glyph-name="m" unicode="m" horiz-adv-x="832" 
d="M672 0v324q0 36 -2.5 61t-10 41t-21 23t-35.5 7q-18 0 -38.5 -8.5t-40 -21t-36 -26.5t-25.5 -25v-375h-89v324q0 36 -2.5 61.5t-10 41t-20.5 22.5t-34 7q-20 0 -41 -9.5t-40 -23.5t-35 -29.5t-26 -27.5v-366h-92v397q0 47 -1.5 83.5t-1.5 47.5h86l5 -84q33 37 78.5 65.5
t96.5 28.5q43 0 73 -20t43 -69q16 17 37 33t45 28.5t50 20t53 7.5q36 0 60.5 -11.5t39.5 -32.5t21.5 -51.5t6.5 -68.5v-374h-93z" />
    <glyph glyph-name="n" unicode="n" horiz-adv-x="579" 
d="M418 0v317q0 38 -3 64t-12 42.5t-26 24t-45 7.5q-22 0 -46 -9.5t-47 -23.5t-42.5 -29.5t-31.5 -27.5v-365h-92v397q0 47 -1.5 83.5t-1.5 47.5h86l5 -84q16 14 39.5 30.5t50.5 30.5t57 23.5t60 9.5q72 0 107.5 -40t35.5 -125v-373h-93z" />
    <glyph glyph-name="o" unicode="o" horiz-adv-x="540" 
d="M495 264q0 -141 -60 -207.5t-165 -66.5q-106 0 -165.5 66.5t-59.5 207.5q0 140 59.5 207t165.5 67t165.5 -67t59.5 -207zM397 264q0 99 -29 150t-98 51q-70 0 -99 -51t-29 -150q0 -100 29 -151t99 -51q69 0 98 51t29 151z" />
    <glyph glyph-name="p" unicode="p" horiz-adv-x="573" 
d="M527 263q0 -76 -17 -128t-44 -84.5t-61 -46.5t-68 -14q-45 0 -86.5 12t-86.5 45v-255h-92v600q0 48 -1 86t-1 50h85l6 -89q38 50 89.5 74t100.5 24q33 0 64.5 -14t56 -46t40 -84.5t15.5 -129.5zM429 259q0 102 -26 148t-87 46q-21 0 -43 -9t-42 -24t-37.5 -34t-28.5 -38
v-223q30 -26 67.5 -43.5t78.5 -17.5q60 0 89 46t29 149z" />
    <glyph glyph-name="q" unicode="q" horiz-adv-x="573" 
d="M503 528q0 -20 -1 -44.5t-1 -58.5v-633h-91v295q-42 -54 -92 -75t-95 -21q-33 0 -65 14t-57 46t-40.5 84t-15.5 128t17 128.5t44 85t61 46.5t68 14q50 0 94 -17t83 -47l6 55h85zM408 392q-30 26 -67.5 44.5t-78.5 18.5q-60 0 -89 -43t-29 -144q0 -103 25.5 -149t87.5 -46
q21 0 43 9.5t42.5 24.5t37.5 34.5t28 39.5v211z" />
    <glyph glyph-name="r" unicode="r" horiz-adv-x="349" 
d="M332 442q-18 5 -38 5q-30 0 -54 -15t-41 -41.5t-26 -62.5t-9 -79v-249h-93v382q0 49 -1.5 91t-1.5 55h86l7 -95q26 55 69 80t88 25q6 0 15 -1t18 -3z" />
    <glyph glyph-name="s" unicode="s" horiz-adv-x="412" 
d="M380 140q0 -77 -51 -113.5t-137 -36.5q-50 0 -91 8t-70 21l14 69q23 -9 59 -17t69 -8q17 0 36 1.5t35 7.5t26.5 18.5t10.5 34.5q0 27 -18 47.5t-45 39t-58 36.5t-58 40t-45 49t-18 64q0 69 45.5 103t126.5 34q42 0 79 -6t66 -15l-13 -74q-20 7 -52.5 13.5t-67.5 6.5
q-17 0 -33.5 -2.5t-29 -9t-20.5 -17.5t-8 -27q0 -24 18.5 -43.5t46 -37.5t59.5 -36.5t59.5 -40t46 -48t18.5 -61.5z" />
    <glyph glyph-name="t" unicode="t" horiz-adv-x="313" 
d="M287 8q-18 -6 -41 -12t-53 -6q-40 0 -62 14t-32 37t-11.5 52.5t-1.5 60.5v302h-72l-7 72h81v125h92v-125h98l-12 -72h-86v-308q0 -39 6 -60t32 -21q17 0 29 3t21 6z" />
    <glyph glyph-name="u" unicode="u" horiz-adv-x="576" 
d="M425 0l-9 83q-16 -15 -38 -31t-48 -30t-55 -23t-60 -9q-72 0 -110 39.5t-38 124.5v374h94v-315q0 -36 3 -62t12 -42.5t25 -24.5t42 -8q50 0 93 25t77 59v368h93v-528h-81z" />
    <glyph glyph-name="v" unicode="v" horiz-adv-x="487" 
d="M291 0h-99l-181 528h99l133 -435l137 435h96z" />
    <glyph glyph-name="w" unicode="w" horiz-adv-x="763" 
d="M594 0h-95l-119 408l-121 -408h-94l-149 528h95l108 -410l121 410h88l115 -410l115 410h89z" />
    <glyph glyph-name="x" unicode="x" horiz-adv-x="475" 
d="M361 0l-128 212l-124 -212h-95l170 275l-155 253h100l113 -194l110 194h95l-155 -255l169 -273h-100z" />
    <glyph glyph-name="y" unicode="y" horiz-adv-x="481" 
d="M261 -70q-18 -52 -34 -81.5t-32.5 -44.5t-33.5 -18.5t-38 -3.5q-19 0 -34 4t-29 10l16 69q5 -2 15.5 -5t25.5 -3q20 0 34.5 21t30.5 68l12 35l-184 547h101l127 -440l135 440h96z" />
    <glyph glyph-name="z" unicode="z" horiz-adv-x="424" 
d="M32 0v68l251 382h-241v78h344v-69l-251 -382h257v-77h-360z" />
    <glyph glyph-name="braceleft" unicode="{" horiz-adv-x="288" 
d="M247 -208q-71 0 -108 34t-37 115v263q0 37 -17 54t-54 21v71q35 4 53 20.5t18 52.5v249q0 81 37 115t108 34h28v-72h-17q-43 0 -58.5 -17t-15.5 -55v-257q0 -43 -12.5 -66t-47.5 -39q35 -17 47.5 -40t12.5 -68v-271q0 -38 15.5 -55t58.5 -17h17v-72h-28z" />
    <glyph glyph-name="bar" unicode="|" horiz-adv-x="257" 
d="M90 -208v1002h77v-1002h-77z" />
    <glyph glyph-name="braceright" unicode="}" horiz-adv-x="287" 
d="M256 279q-35 -6 -52.5 -22t-17.5 -53v-263q0 -81 -37.5 -115t-108.5 -34h-27v72h17q43 0 58 17t15 55v243q0 11 0.5 20.5t1.5 19.5q2 37 14.5 58t44.5 36q-35 16 -48 39t-13 68v257q0 38 -15 55t-58 17h-17v72h27q71 0 108.5 -34t37.5 -115v-249q0 -36 17 -53t53 -23v-68
z" />
    <glyph glyph-name="asciitilde" unicode="~" horiz-adv-x="562" 
d="M499 372q-36 -48 -68 -74t-73 -26q-23 0 -45.5 8.5t-46.5 22.5t-41.5 22t-32.5 8q-19 0 -37.5 -15t-41.5 -44l-51 38q36 48 68 73.5t73 25.5q22 0 44.5 -8t46.5 -22t42 -22t32 -8q20 0 38.5 15t41.5 44z" />
    <glyph glyph-name="Zcaron" horiz-adv-x="491" 
d="M35 0v75l308 510h-296v82h400v-76l-307 -510h316v-81h-421zM279 732h-68l-126 131l42 43l119 -94l121 94l42 -43z" />
    <glyph glyph-name="Zcaron" unicode="&#x17d;" horiz-adv-x="491" 
d="M35 0v75l308 510h-296v82h400v-76l-307 -510h316v-81h-421zM279 732h-68l-126 131l42 43l119 -94l121 94l42 -43z" />
    <glyph glyph-name="zcaron" horiz-adv-x="424" 
d="M32 0v68l251 382h-241v78h344v-69l-251 -382h257v-77h-360zM246 618h-68l-126 131l42 43l119 -94l121 94l42 -43z" />
    <glyph glyph-name="zcaron" unicode="&#x17e;" horiz-adv-x="424" 
d="M32 0v68l251 382h-241v78h344v-69l-251 -382h257v-77h-360zM246 618h-68l-126 131l42 43l119 -94l121 94l42 -43z" />
    <glyph glyph-name="nonbreakingspace" unicode="&#xa0;" horiz-adv-x="196" 
 />
    <glyph glyph-name="exclamdown" unicode="&#xa1;" horiz-adv-x="306" 
d="M216 474q0 -26 -19 -44.5t-45 -18.5t-44.5 18.5t-18.5 44.5q0 27 18.5 45.5t44.5 18.5t45 -18.5t19 -45.5zM95 -140l14 464h87l14 -464h-115z" />
    <glyph glyph-name="cent" unicode="&#xa2;" 
d="M477 120q-22 -11 -54 -21t-74 -14v-85h-76v86q-85 11 -130 71.5t-45 176.5t45 176t130 71v86h76v-85q39 -3 69 -12.5t50 -20.5l-25 -65q-21 10 -50.5 19t-64.5 9q-70 0 -101 -43t-31 -135q0 -89 30 -132t101 -43q35 0 68.5 8t57.5 19z" />
    <glyph glyph-name="sterling" unicode="&#xa3;" 
d="M93 0v65q36 35 47.5 77.5t11.5 90.5q0 21 -2 40t-4 37h-75v68h66q-4 29 -7 62t-3 65q0 86 51 129.5t145 43.5q67 0 113.5 -14.5t76.5 -30.5l-27 -71q-28 13 -64.5 25t-87.5 12t-80.5 -23.5t-29.5 -81.5q0 -31 2.5 -60t5.5 -56h162v-68h-153q2 -20 4 -41t2 -42
q0 -42 -9 -79t-35 -72h311v-76h-421z" />
    <glyph glyph-name="currency" unicode="&#xa4;" horiz-adv-x="509" 
d="M105 160q-10 15 -17 32q-14 33 -14 71q0 37 14 70q7 16 16 31l-52 53l48 48l53 -53q15 10 31 17q33 14 71 14t71 -14q16 -7 30 -16l53 53l48 -48l-53 -53q10 -15 17 -32q14 -33 14 -70q0 -38 -14 -71q-7 -17 -17 -32l53 -52l-48 -48l-53 52q-14 -9 -30 -16
q-33 -14 -71 -14t-71 14q-16 7 -31 16l-52 -52l-48 48zM367 263q0 23 -9 43.5t-24 35.5t-35.5 24t-43.5 9q-24 0 -44.5 -9t-35.5 -24t-24 -35.5t-9 -43.5t9 -43.5t24 -35.5t35.5 -24t44.5 -9q23 0 43.5 9t35.5 24t24 35.5t9 43.5z" />
    <glyph glyph-name="yen" unicode="&#xa5;" 
d="M384 393h102v-54h-130l-27 -50l-4 -15h161v-53h-163v-221h-96v221h-163v53h161l-3 15l-27 50h-131v54h102l-145 274h107l150 -311l149 311h102z" />
    <glyph glyph-name="brokenbar" unicode="&#xa6;" horiz-adv-x="257" 
d="M90 460v334h77v-334h-77zM90 -208v335h77v-335h-77z" />
    <glyph glyph-name="section" unicode="&#xa7;" horiz-adv-x="487" 
d="M437 278q0 -24 -10.5 -44.5t-24.5 -37t-29 -28.5t-25 -17q9 -6 20.5 -16.5t21.5 -25t17 -31t7 -34.5q0 -77 -50.5 -113t-137.5 -36q-50 0 -91.5 11t-71.5 23l15 68q12 -5 28 -10.5t35 -10t38.5 -8t37.5 -3.5q17 0 35 3t33 11t25 21t10 34q0 29 -20 48t-50 34t-65 29
t-65 34t-50 49.5t-20 74.5q0 23 9.5 42t23.5 34t29.5 25.5t27.5 16.5q-26 18 -47 47.5t-21 71.5q0 69 46 103.5t127 34.5q42 0 80 -9t67 -18l-13 -71q-20 7 -54.5 16t-70.5 9t-62.5 -13.5t-26.5 -45.5q0 -29 20 -49.5t50.5 -38t65.5 -33.5t65.5 -36t50.5 -46.5t20 -64.5z
M352 257q0 20 -11 36t-31.5 31t-50.5 30.5t-68 33.5q-20 -11 -39 -30.5t-19 -39.5q0 -24 10.5 -41t31 -31.5t51 -29t69.5 -33.5q7 5 17 12.5t19 17t15 20.5t6 24z" />
    <glyph glyph-name="dieresis" unicode="&#xa8;" horiz-adv-x="464" 
d="M402 678q0 -26 -17 -42.5t-41 -16.5t-41 16.5t-17 42.5q0 24 17 41t41 17t41 -17t17 -41zM178 678q0 -26 -16.5 -42.5t-40.5 -16.5t-41 16.5t-17 42.5q0 24 17 41t41 17t40.5 -17t16.5 -41z" />
    <glyph glyph-name="copyright" unicode="&#xa9;" horiz-adv-x="811" 
d="M751 333q0 -72 -27 -134.5t-74 -109.5t-109.5 -74t-134.5 -27t-135 27t-110 74t-74 109.5t-27 134.5t27 135t74 110t110 74t135 27t134.5 -27t109.5 -74t74 -110t27 -135zM682 333q0 57 -21.5 107.5t-59 88t-88 59.5t-107.5 22q-58 0 -108.5 -22t-88 -59.5t-59.5 -88
t-22 -107.5q0 -58 22 -108.5t59.5 -88t88 -59t108.5 -21.5q57 0 107.5 21.5t88 59t59 88t21.5 108.5zM520 163q-21 -10 -49.5 -18.5t-67.5 -8.5q-74 0 -116 50t-42 151q0 97 42.5 148.5t115.5 51.5q37 0 63.5 -9t46.5 -17l-20 -54q-17 7 -37 13.5t-43 6.5q-54 0 -74 -36
t-20 -104q0 -69 20.5 -105t73.5 -36q24 0 46 5.5t40 13.5z" />
    <glyph glyph-name="ordfeminine" unicode="&#xaa;" horiz-adv-x="421" 
d="M303 215l-8 63q-21 -29 -53 -50t-85 -21q-26 0 -49 7t-40 23.5t-27.5 42.5t-10.5 65q0 46 16 76.5t46 48.5t73.5 25.5t98.5 7.5h23v28q0 30 -6.5 48t-18 27t-27.5 12t-35 3q-35 0 -71 -8t-67 -19l-13 62q37 14 80.5 23t85.5 9q84 0 120 -40t36 -121v-312h-68zM287 447
h-33q-72 0 -106.5 -24.5t-34.5 -67.5q0 -35 14.5 -58t52.5 -23q21 0 38 8.5t30.5 20t23 24t15.5 20.5v100z" />
    <glyph glyph-name="guillemotleft" unicode="&#xab;" horiz-adv-x="510" 
d="M405 95l-160 192l160 191l48 -41l-114 -150l115 -150zM211 94l-161 193l161 192l48 -41l-115 -151l116 -151z" />
    <glyph glyph-name="logicalnot" unicode="&#xac;" 
d="M403 130v172h-346v76h431v-248h-85z" />
    <glyph glyph-name="registered" unicode="&#xae;" horiz-adv-x="668" 
d="M601 515q0 -55 -21 -103.5t-57 -85t-84.5 -57.5t-103.5 -21q-56 0 -104.5 21t-85 57.5t-57.5 85t-21 103.5t21 103.5t57.5 85t85 57.5t104.5 21q55 0 103.5 -21t84.5 -57.5t57 -85t21 -103.5zM545 515q0 43 -16.5 81.5t-45 67.5t-67 45.5t-81.5 16.5q-44 0 -83 -16.5
t-68 -45.5t-45.5 -67.5t-16.5 -81.5q0 -44 16.5 -82.5t45.5 -67.5t68 -45.5t83 -16.5q43 0 81.5 16.5t67 45.5t45 67.5t16.5 82.5zM292 497v-121h-54v285h92q44 0 74.5 -19.5t30.5 -62.5q0 -31 -22 -53t-61 -26l104 -124h-68zM292 615v-76h26q36 0 49 8t13 30q0 23 -12 30.5
t-50 7.5h-26z" />
    <glyph glyph-name="macron" unicode="&#xaf;" horiz-adv-x="464" 
d="M80 636v69h303v-69h-303z" />
    <glyph glyph-name="macron" unicode="&#x2c9;" horiz-adv-x="464" 
d="M80 636v69h303v-69h-303z" />
    <glyph glyph-name="degree" unicode="&#xb0;" horiz-adv-x="509" 
d="M435 498q0 -38 -14 -71t-38 -57.5t-57 -38.5t-71 -14t-70.5 14t-57.5 38.5t-39 57.5t-14 71q0 37 14 70t39 57.5t57.5 38.5t70.5 14t71 -14t57 -38.5t38 -57.5t14 -70zM367 498q0 23 -9 43.5t-24 35.5t-35.5 24t-43.5 9q-24 0 -44.5 -9t-35.5 -24t-24 -35.5t-9 -43.5
t9 -43.5t24 -35.5t35.5 -24t44.5 -9q23 0 43.5 9t35.5 24t24 35.5t9 43.5z" />
    <glyph glyph-name="plusminus" unicode="&#xb1;" 
d="M316 326v-166h-83v166h-164v75h164v166h83v-166h164v-75h-164zM69 28v75h411v-75h-411z" />
    <glyph glyph-name="twosuperior" unicode="&#xb2;" horiz-adv-x="326" 
d="M7 217v59q26 28 60 60.5t64 68t51 72.5t21 75q0 32 -20 49.5t-54 17.5q-27 0 -53.5 -8.5t-42.5 -18.5l-25 60q23 13 59.5 26t78.5 13q69 0 108.5 -31t39.5 -92q0 -42 -16 -79.5t-42.5 -71.5t-59 -65.5t-65.5 -62.5h189v-72h-293z" />
    <glyph glyph-name="threesuperior" unicode="&#xb3;" horiz-adv-x="347" 
d="M314 348q0 -72 -46.5 -105.5t-118.5 -33.5q-51 0 -86 9t-63 24l26 61q49 -26 108 -26q39 0 64.5 15.5t25.5 59.5q0 24 -9 38.5t-25.5 22.5t-39 11t-50.5 3v60q65 2 89.5 18.5t24.5 59.5q0 18 -7 29.5t-18 17.5t-25 8.5t-28 2.5q-24 0 -51 -7.5t-47 -19.5l-24 60
q24 14 60.5 24.5t80.5 10.5q67 0 108 -29t41 -89q0 -47 -23 -74.5t-57 -38.5q41 -8 65.5 -36t24.5 -76z" />
    <glyph glyph-name="acute" unicode="&#xb4;" horiz-adv-x="464" 
d="M210 604l-40 47l154 159l59 -70z" />
    <glyph glyph-name="glyph187" unicode="&#xb5;" horiz-adv-x="581" 
d="M432 0l-7 70q-6 -12 -18 -26t-29.5 -26t-40 -20t-49.5 -8t-46.5 5.5t-34 14.5t-25 21t-18.5 26v-265h-92v736h94v-292q0 -31 4.5 -61.5t17 -54.5t36.5 -38.5t63 -14.5q66 0 98.5 44t32.5 122v295h93v-528h-79z" />
    <glyph glyph-name="paragraph" unicode="&#xb6;" horiz-adv-x="608" 
d="M444 -208v875h78v-875h-78zM279 -208v490h-21q-62 0 -105 14t-70 39t-39 60.5t-12 78.5t12 78.5t39 61t70 39.5t105 14h99v-875h-78z" />
    <glyph glyph-name="periodcentered" unicode="&#xb7;" horiz-adv-x="250" 
d="M188 307q0 -27 -18 -45.5t-45 -18.5q-26 0 -44.5 18.5t-18.5 45.5q0 26 18.5 44.5t44.5 18.5q27 0 45 -18.5t18 -44.5z" />
    <glyph glyph-name="periodcentered" unicode="&#x22c5;" horiz-adv-x="250" 
d="M188 307q0 -27 -18 -45.5t-45 -18.5q-26 0 -44.5 18.5t-18.5 45.5q0 26 18.5 44.5t44.5 18.5q27 0 45 -18.5t18 -44.5z" />
    <glyph glyph-name="periodcentered" unicode="&#x2219;" horiz-adv-x="250" 
d="M188 307q0 -27 -18 -45.5t-45 -18.5q-26 0 -44.5 18.5t-18.5 45.5q0 26 18.5 44.5t44.5 18.5q27 0 45 -18.5t18 -44.5z" />
    <glyph glyph-name="cedilla" unicode="&#xb8;" horiz-adv-x="428" 
d="M331 -131q0 -27 -11 -45.5t-29 -30.5t-40.5 -17.5t-46.5 -5.5q-19 0 -40.5 3.5t-36.5 9.5l16 51q11 -3 25.5 -6.5t29.5 -3.5q22 0 42 10.5t20 36.5q0 12 -5.5 19t-14.5 10.5t-20 4.5t-22 1t-22.5 -1t-18.5 -3l32 105h52l-16 -53q2 1 6.5 1h8.5q37 0 64 -19t27 -67z" />
    <glyph glyph-name="onesuperior" unicode="&#xb9;" horiz-adv-x="248" 
d="M112 217v368l-79 -57l-38 54l140 101h65v-466h-88z" />
    <glyph glyph-name="ordmasculine" unicode="&#xba;" horiz-adv-x="455" 
d="M410 449q0 -128 -49 -185t-135 -57t-135 57t-49 185q0 127 49 183t135 56t135 -56t49 -183zM326 449q0 84 -24 128t-76 44t-75.5 -44t-23.5 -128q0 -85 23.5 -130.5t75.5 -45.5t76 45.5t24 130.5z" />
    <glyph glyph-name="guillemotright" unicode="&#xbb;" horiz-adv-x="510" 
d="M299 94l-49 41l115 151l-116 151l50 42l160 -192zM104 95l-48 41l114 150l-114 150l48 42l160 -191z" />
    <glyph glyph-name="onequarter" unicode="&#xbc;" horiz-adv-x="852" 
d="M259 -10h-85l380 690h84zM112 217v368l-79 -57l-38 54l140 101h65v-466h-88zM801 67v-69h-86v69h-214l-4 54l154 358l76 -37l-138 -309h128v101h84v-102h48v-65h-48z" />
    <glyph glyph-name="onehalf" unicode="&#xbd;" horiz-adv-x="889" 
d="M259 -10h-85l380 690h84zM112 217v368l-79 -57l-38 54l140 101h65v-466h-88zM570 0v59q26 28 60 60.5t64 68t51 72.5t21 75q0 32 -20 49.5t-54 17.5q-27 0 -53.5 -8.5t-42.5 -18.5l-25 60q23 13 59.5 26t78.5 13q69 0 108.5 -31t39.5 -92q0 -42 -16 -79.5t-42.5 -71.5
t-59 -65.5t-65.5 -62.5h189v-72h-293z" />
    <glyph glyph-name="threequarters" unicode="&#xbe;" horiz-adv-x="902" 
d="M309 -10h-85l380 690h84zM314 348q0 -72 -46.5 -105.5t-118.5 -33.5q-51 0 -86 9t-63 24l26 61q49 -26 108 -26q39 0 64.5 15.5t25.5 59.5q0 24 -9 38.5t-25.5 22.5t-39 11t-50.5 3v60q65 2 89.5 18.5t24.5 59.5q0 18 -7 29.5t-18 17.5t-25 8.5t-28 2.5q-24 0 -51 -7.5
t-47 -19.5l-24 60q24 14 60.5 24.5t80.5 10.5q67 0 108 -29t41 -89q0 -47 -23 -74.5t-57 -38.5q41 -8 65.5 -36t24.5 -76zM851 67v-69h-86v69h-214l-4 54l154 358l76 -37l-138 -309h128v101h84v-102h48v-65h-48z" />
    <glyph glyph-name="questiondown" unicode="&#xbf;" horiz-adv-x="417" 
d="M316 474q0 -26 -19 -44.5t-45 -18.5t-44 18.5t-18 44.5q0 27 18 45.5t44 18.5t45 -18.5t19 -45.5zM400 -93q-12 -8 -30 -18t-40 -19t-48 -15t-55 -6q-84 0 -134.5 41.5t-50.5 130.5q0 43 12 74t30.5 55t40 43.5t40.5 38.5t31.5 40.5t13.5 49.5h86q0 -34 -12 -59.5
t-29 -47t-36.5 -40.5t-36.5 -40.5t-28 -48t-11 -61.5q0 -42 22.5 -68t69.5 -26q22 0 42 5t37.5 12.5t30.5 15.5t22 14z" />
    <glyph glyph-name="Agrave" unicode="&#xc0;" horiz-adv-x="569" 
d="M448 0l-42 131h-247l-43 -131h-100l215 667h108l214 -667h-105zM283 547l-104 -340h207zM324 718l-174 136l59 70l153 -159z" />
    <glyph glyph-name="Aacute" unicode="&#xc1;" horiz-adv-x="569" 
d="M448 0l-42 131h-247l-43 -131h-100l215 667h108l214 -667h-105zM283 547l-104 -340h207zM263 718l-40 47l154 159l59 -70z" />
    <glyph glyph-name="Acircumflex" unicode="&#xc2;" horiz-adv-x="569" 
d="M448 0l-42 131h-247l-43 -131h-100l215 667h108l214 -667h-105zM283 547l-104 -340h207zM404 723l-119 95l-121 -95l-41 43l130 131h68l126 -131z" />
    <glyph glyph-name="Atilde" unicode="&#xc3;" horiz-adv-x="569" 
d="M448 0l-42 131h-247l-43 -131h-100l215 667h108l214 -667h-105zM283 547l-104 -340h207zM353 734q-24 0 -41.5 7.5t-39.5 18.5q-16 8 -29 15t-30 7q-22 0 -41 -15t-33 -31l-45 31q13 17 25.5 33t27.5 28.5t32 20t39 7.5q24 0 42 -7.5t37 -18.5q16 -9 30 -15.5t31 -6.5
q21 0 40.5 14.5t33.5 30.5l45 -31q-13 -17 -26 -32.5t-27.5 -28t-32 -20t-38.5 -7.5z" />
    <glyph glyph-name="Adieresis" unicode="&#xc4;" horiz-adv-x="569" 
d="M448 0l-42 131h-247l-43 -131h-100l215 667h108l214 -667h-105zM283 547l-104 -340h207zM456 792q0 -26 -17 -42.5t-41 -16.5t-41 16.5t-17 42.5q0 24 17 41t41 17t41 -17t17 -41zM232 792q0 -26 -16.5 -42.5t-40.5 -16.5t-41 16.5t-17 42.5q0 24 17 41t41 17t40.5 -17
t16.5 -41z" />
    <glyph glyph-name="Aring" unicode="&#xc5;" horiz-adv-x="569" 
d="M448 0l-42 131h-247l-43 -131h-100l215 667h108l214 -667h-105zM283 547l-104 -340h207zM285 720q-50 0 -80.5 32.5t-30.5 78.5q0 47 30.5 79.5t80.5 32.5t80.5 -32.5t30.5 -79.5q0 -46 -30.5 -78.5t-80.5 -32.5zM285 890q-29 0 -43 -17.5t-14 -41.5q0 -23 14 -40.5
t43 -17.5q28 0 42 17t14 41t-14 41.5t-42 17.5z" />
    <glyph glyph-name="AE" unicode="&#xc6;" horiz-adv-x="786" 
d="M377 575l-184 -368h184v368zM377 0v131h-221l-67 -131h-101l335 667h429l-13 -83h-266v-201h213v-77h-213v-224h270l13 -82h-379z" />
    <glyph glyph-name="Ccedilla" unicode="&#xc7;" horiz-adv-x="506" 
d="M408 -131q0 -27 -11 -45.5t-29 -30.5t-40.5 -17.5t-46.5 -5.5q-19 0 -40.5 3.5t-36.5 9.5l16 51q11 -3 25.5 -6.5t29.5 -3.5q22 0 42 10.5t20 36.5q0 12 -5.5 19t-14.5 10.5t-20 4.5t-22 1t-22.5 -1t-18.5 -3l27 89q-56 7 -95.5 32t-64.5 68t-36.5 103.5t-11.5 139.5
q0 85 14 149.5t44.5 108t79.5 65.5t118 22q59 0 98 -12t63 -22l-26 -76q-23 10 -53 19t-70 9q-48 0 -80 -18t-52 -51.5t-28.5 -82.5t-8.5 -111q0 -61 8 -109.5t27.5 -82.5t52 -52.5t80.5 -18.5q40 0 73.5 8.5t62.5 19.5l24 -77q-32 -14 -73 -23.5t-95 -10.5l-10 -34
q2 1 6.5 1h8.5q37 0 64 -19t27 -67z" />
    <glyph glyph-name="Egrave" unicode="&#xc8;" horiz-adv-x="492" 
d="M81 0v667h376l-13 -83h-266v-201h213v-77h-213v-224h270l13 -82h-380zM300 718l-174 136l59 70l153 -159z" />
    <glyph glyph-name="Eacute" unicode="&#xc9;" horiz-adv-x="492" 
d="M81 0v667h376l-13 -83h-266v-201h213v-77h-213v-224h270l13 -82h-380zM239 718l-40 47l154 159l59 -70z" />
    <glyph glyph-name="Ecircumflex" unicode="&#xca;" horiz-adv-x="492" 
d="M81 0v667h376l-13 -83h-266v-201h213v-77h-213v-224h270l13 -82h-380zM380 723l-119 95l-121 -95l-41 43l130 131h68l126 -131z" />
    <glyph glyph-name="Edieresis" unicode="&#xcb;" horiz-adv-x="492" 
d="M81 0v667h376l-13 -83h-266v-201h213v-77h-213v-224h270l13 -82h-380zM431 792q0 -26 -17 -42.5t-41 -16.5t-41 16.5t-17 42.5q0 24 17 41t41 17t41 -17t17 -41zM207 792q0 -26 -16.5 -42.5t-40.5 -16.5t-41 16.5t-17 42.5q0 24 17 41t41 17t40.5 -17t16.5 -41z" />
    <glyph glyph-name="Igrave" unicode="&#xcc;" horiz-adv-x="259" 
d="M81 0v667h97v-667h-97zM172 718l-174 136l59 70l153 -159z" />
    <glyph glyph-name="Iacute" unicode="&#xcd;" horiz-adv-x="259" 
d="M81 0v667h97v-667h-97zM111 718l-40 47l154 159l59 -70z" />
    <glyph glyph-name="Icircumflex" unicode="&#xce;" horiz-adv-x="259" 
d="M81 0v667h97v-667h-97zM252 723l-119 95l-121 -95l-41 43l130 131h68l126 -131z" />
    <glyph glyph-name="Idieresis" unicode="&#xcf;" horiz-adv-x="259" 
d="M81 0v667h97v-667h-97zM303 792q0 -26 -17 -42.5t-41 -16.5t-41 16.5t-17 42.5q0 24 17 41t41 17t41 -17t17 -41zM79 792q0 -26 -16.5 -42.5t-40.5 -16.5t-41 16.5t-17 42.5q0 24 17 41t41 17t40.5 -17t16.5 -41z" />
    <glyph glyph-name="Eth" unicode="&#xd0;" horiz-adv-x="598" 
d="M544 334q0 -108 -19.5 -173.5t-56.5 -101t-91 -47.5t-124 -12h-160v309h-74l-5 70h79v288h160q70 0 124 -12t91 -47.5t56.5 -101t19.5 -172.5zM445 334q0 77 -11.5 126.5t-34.5 78t-58 39.5t-81 11h-70v-210h115v-70h-115v-232h70q46 0 81 11t58 40t34.5 78.5t11.5 127.5
z" />
    <glyph glyph-name="Ntilde" unicode="&#xd1;" horiz-adv-x="613" 
d="M428 0l-258 518v-518h-89v667h103l259 -521v521h89v-667h-104zM372 734q-24 0 -41.5 7.5t-39.5 18.5q-16 8 -29 15t-30 7q-22 0 -41 -15t-33 -31l-45 31q13 17 25.5 33t27.5 28.5t32 20t39 7.5q24 0 42 -7.5t37 -18.5q16 -9 30 -15.5t31 -6.5q21 0 40.5 14.5t33.5 30.5
l45 -31q-13 -17 -26 -32.5t-27.5 -28t-32 -20t-38.5 -7.5z" />
    <glyph glyph-name="Ograve" unicode="&#xd2;" horiz-adv-x="618" 
d="M564 334q0 -177 -65 -261.5t-190 -84.5q-126 0 -190.5 84.5t-64.5 261.5q0 176 64.5 260.5t190.5 84.5q125 0 190 -84.5t65 -260.5zM464 334q0 61 -9 110.5t-27.5 84t-48 53t-70.5 18.5t-70.5 -18.5t-48.5 -53t-28 -84t-9 -110.5q0 -62 9 -112t28 -84.5t48.5 -53
t70.5 -18.5q82 0 118.5 71.5t36.5 196.5zM348 718l-174 136l59 70l153 -159z" />
    <glyph glyph-name="Oacute" unicode="&#xd3;" horiz-adv-x="618" 
d="M564 334q0 -177 -65 -261.5t-190 -84.5q-126 0 -190.5 84.5t-64.5 261.5q0 176 64.5 260.5t190.5 84.5q125 0 190 -84.5t65 -260.5zM464 334q0 61 -9 110.5t-27.5 84t-48 53t-70.5 18.5t-70.5 -18.5t-48.5 -53t-28 -84t-9 -110.5q0 -62 9 -112t28 -84.5t48.5 -53
t70.5 -18.5q82 0 118.5 71.5t36.5 196.5zM287 718l-40 47l154 159l59 -70z" />
    <glyph glyph-name="Ocircumflex" unicode="&#xd4;" horiz-adv-x="618" 
d="M564 334q0 -177 -65 -261.5t-190 -84.5q-126 0 -190.5 84.5t-64.5 261.5q0 176 64.5 260.5t190.5 84.5q125 0 190 -84.5t65 -260.5zM464 334q0 61 -9 110.5t-27.5 84t-48 53t-70.5 18.5t-70.5 -18.5t-48.5 -53t-28 -84t-9 -110.5q0 -62 9 -112t28 -84.5t48.5 -53
t70.5 -18.5q82 0 118.5 71.5t36.5 196.5zM428 723l-119 95l-121 -95l-41 43l130 131h68l126 -131z" />
    <glyph glyph-name="Otilde" unicode="&#xd5;" horiz-adv-x="618" 
d="M564 334q0 -177 -65 -261.5t-190 -84.5q-126 0 -190.5 84.5t-64.5 261.5q0 176 64.5 260.5t190.5 84.5q125 0 190 -84.5t65 -260.5zM464 334q0 61 -9 110.5t-27.5 84t-48 53t-70.5 18.5t-70.5 -18.5t-48.5 -53t-28 -84t-9 -110.5q0 -62 9 -112t28 -84.5t48.5 -53
t70.5 -18.5q82 0 118.5 71.5t36.5 196.5zM377 734q-24 0 -41.5 7.5t-39.5 18.5q-16 8 -29 15t-30 7q-22 0 -41 -15t-33 -31l-45 31q13 17 25.5 33t27.5 28.5t32 20t39 7.5q24 0 42 -7.5t37 -18.5q16 -9 30 -15.5t31 -6.5q21 0 40.5 14.5t33.5 30.5l45 -31q-13 -17 -26 -32.5
t-27.5 -28t-32 -20t-38.5 -7.5z" />
    <glyph glyph-name="Odieresis" unicode="&#xd6;" horiz-adv-x="618" 
d="M564 334q0 -177 -65 -261.5t-190 -84.5q-126 0 -190.5 84.5t-64.5 261.5q0 176 64.5 260.5t190.5 84.5q125 0 190 -84.5t65 -260.5zM464 334q0 61 -9 110.5t-27.5 84t-48 53t-70.5 18.5t-70.5 -18.5t-48.5 -53t-28 -84t-9 -110.5q0 -62 9 -112t28 -84.5t48.5 -53
t70.5 -18.5q82 0 118.5 71.5t36.5 196.5zM480 792q0 -26 -17 -42.5t-41 -16.5t-41 16.5t-17 42.5q0 24 17 41t41 17t41 -17t17 -41zM256 792q0 -26 -16.5 -42.5t-40.5 -16.5t-41 16.5t-17 42.5q0 24 17 41t41 17t40.5 -17t16.5 -41z" />
    <glyph glyph-name="multiply" unicode="&#xd7;" 
d="M428 126l-153 152l-152 -152l-57 58l152 152l-152 152l57 58l152 -152l153 152l57 -58l-153 -152l153 -152z" />
    <glyph glyph-name="Oslash" unicode="&#xd8;" horiz-adv-x="618" 
d="M564 334q0 -177 -65 -261.5t-190 -84.5q-93 0 -152 46l-40 -65l-53 37l48 76q-58 85 -58 252q0 176 64.5 260.5t190.5 84.5q91 0 152 -47l42 65l51 -38l-51 -69l-1 -1q62 -86 62 -255zM464 334q0 94 -21 159l-237 -381q38 -46 103 -46q82 0 118.5 71.5t36.5 196.5z
M153 334q0 -47 4.5 -86t15.5 -71l238 376q-38 47 -102 47q-41 0 -70.5 -18.5t-48.5 -53t-28 -84t-9 -110.5z" />
    <glyph glyph-name="Ugrave" unicode="&#xd9;" horiz-adv-x="601" 
d="M527 285q0 -77 -9.5 -133t-35 -92.5t-69.5 -54t-113 -17.5t-112.5 17.5t-69 54t-35 92.5t-9.5 133v382h97v-392q0 -51 4.5 -90.5t18 -66.5t39.5 -40.5t68 -13.5t67.5 13.5t39 40.5t18 66.5t4.5 90.5v392h97v-382zM339 718l-174 136l59 70l153 -159z" />
    <glyph glyph-name="Uacute" unicode="&#xda;" horiz-adv-x="601" 
d="M527 285q0 -77 -9.5 -133t-35 -92.5t-69.5 -54t-113 -17.5t-112.5 17.5t-69 54t-35 92.5t-9.5 133v382h97v-392q0 -51 4.5 -90.5t18 -66.5t39.5 -40.5t68 -13.5t67.5 13.5t39 40.5t18 66.5t4.5 90.5v392h97v-382zM278 718l-40 47l154 159l59 -70z" />
    <glyph glyph-name="Ucircumflex" unicode="&#xdb;" horiz-adv-x="601" 
d="M527 285q0 -77 -9.5 -133t-35 -92.5t-69.5 -54t-113 -17.5t-112.5 17.5t-69 54t-35 92.5t-9.5 133v382h97v-392q0 -51 4.5 -90.5t18 -66.5t39.5 -40.5t68 -13.5t67.5 13.5t39 40.5t18 66.5t4.5 90.5v392h97v-382zM419 723l-119 95l-121 -95l-41 43l130 131h68l126 -131z
" />
    <glyph glyph-name="Udieresis" unicode="&#xdc;" horiz-adv-x="601" 
d="M527 285q0 -77 -9.5 -133t-35 -92.5t-69.5 -54t-113 -17.5t-112.5 17.5t-69 54t-35 92.5t-9.5 133v382h97v-392q0 -51 4.5 -90.5t18 -66.5t39.5 -40.5t68 -13.5t67.5 13.5t39 40.5t18 66.5t4.5 90.5v392h97v-382zM471 792q0 -26 -17 -42.5t-41 -16.5t-41 16.5t-17 42.5
q0 24 17 41t41 17t41 -17t17 -41zM247 792q0 -26 -16.5 -42.5t-40.5 -16.5t-41 16.5t-17 42.5q0 24 17 41t41 17t40.5 -17t16.5 -41z" />
    <glyph glyph-name="Yacute" unicode="&#xdd;" horiz-adv-x="539" 
d="M318 278v-278h-97v278l-221 389h108l164 -303l163 303h104zM249 718l-40 47l154 159l59 -70z" />
    <glyph glyph-name="Thorn" unicode="&#xde;" 
d="M512 350q0 -205 -250 -205h-84v-145h-97v667h97v-115h83q134 0 192.5 -50t58.5 -152zM412 350q0 70 -39.5 97.5t-114.5 27.5h-80v-254h80q82 0 118 30t36 99z" />
    <glyph glyph-name="germandbls" unicode="&#xdf;" horiz-adv-x="567" 
d="M531 150q0 -41 -15 -71t-40.5 -49.5t-59.5 -29.5t-72 -10q-36 0 -67.5 6.5t-56.5 15.5l15 66q15 -6 39 -11.5t52 -5.5q14 0 33 2.5t35.5 11t28 23.5t11.5 40t-15 45t-38 38t-49 35.5t-49 38t-38 45t-15 57.5q0 39 15.5 61.5t33.5 40t33.5 37t15.5 53.5q0 32 -18 55.5
t-56 23.5q-21 0 -37.5 -4t-28 -15.5t-17.5 -32t-6 -53.5v-563h-93v569q0 88 46 130.5t129 42.5q81 0 127.5 -36t46.5 -110q0 -42 -15.5 -67.5t-33.5 -44t-33.5 -36t-15.5 -44.5q0 -20 15.5 -37.5t38.5 -34.5t50 -35t50 -39t38.5 -47.5t15.5 -60.5z" />
    <glyph glyph-name="agrave" unicode="&#xe0;" horiz-adv-x="520" 
d="M370 0l-9 78q-12 -16 -28 -32t-36.5 -28.5t-47.5 -20t-61 -7.5q-30 0 -57.5 8.5t-48.5 27t-33.5 47.5t-12.5 70q0 53 20 88.5t58.5 57t93.5 30.5t124 9h26v17q0 60 -23 89t-89 29q-45 0 -89 -9.5t-79 -20.5l-16 68q43 15 94.5 26t102.5 11q94 0 143.5 -41.5t49.5 -140.5
v-356h-82zM358 265h-43q-99 0 -142 -27.5t-43 -81.5q0 -39 18 -65t69 -26q29 0 52 9t40.5 22t29.5 27t19 24v118zM299 605l-174 136l59 70l153 -159z" />
    <glyph glyph-name="aacute" unicode="&#xe1;" horiz-adv-x="520" 
d="M370 0l-9 78q-12 -16 -28 -32t-36.5 -28.5t-47.5 -20t-61 -7.5q-30 0 -57.5 8.5t-48.5 27t-33.5 47.5t-12.5 70q0 53 20 88.5t58.5 57t93.5 30.5t124 9h26v17q0 60 -23 89t-89 29q-45 0 -89 -9.5t-79 -20.5l-16 68q43 15 94.5 26t102.5 11q94 0 143.5 -41.5t49.5 -140.5
v-356h-82zM358 265h-43q-99 0 -142 -27.5t-43 -81.5q0 -39 18 -65t69 -26q29 0 52 9t40.5 22t29.5 27t19 24v118zM238 604l-40 47l154 159l59 -70z" />
    <glyph glyph-name="acircumflex" unicode="&#xe2;" horiz-adv-x="520" 
d="M370 0l-9 78q-12 -16 -28 -32t-36.5 -28.5t-47.5 -20t-61 -7.5q-30 0 -57.5 8.5t-48.5 27t-33.5 47.5t-12.5 70q0 53 20 88.5t58.5 57t93.5 30.5t124 9h26v17q0 60 -23 89t-89 29q-45 0 -89 -9.5t-79 -20.5l-16 68q43 15 94.5 26t102.5 11q94 0 143.5 -41.5t49.5 -140.5
v-356h-82zM358 265h-43q-99 0 -142 -27.5t-43 -81.5q0 -39 18 -65t69 -26q29 0 52 9t40.5 22t29.5 27t19 24v118zM379 609l-119 95l-121 -95l-41 43l130 131h68l126 -131z" />
    <glyph glyph-name="atilde" unicode="&#xe3;" horiz-adv-x="520" 
d="M370 0l-9 78q-12 -16 -28 -32t-36.5 -28.5t-47.5 -20t-61 -7.5q-30 0 -57.5 8.5t-48.5 27t-33.5 47.5t-12.5 70q0 53 20 88.5t58.5 57t93.5 30.5t124 9h26v17q0 60 -23 89t-89 29q-45 0 -89 -9.5t-79 -20.5l-16 68q43 15 94.5 26t102.5 11q94 0 143.5 -41.5t49.5 -140.5
v-356h-82zM358 265h-43q-99 0 -142 -27.5t-43 -81.5q0 -39 18 -65t69 -26q29 0 52 9t40.5 22t29.5 27t19 24v118zM327 620q-24 0 -41.5 7.5t-39.5 18.5q-16 8 -29 15t-30 7q-22 0 -41 -15t-33 -31l-45 31q13 17 25.5 33t27.5 28.5t32 20t39 7.5q24 0 42 -7.5t37 -18.5
q16 -9 30 -15.5t31 -6.5q21 0 40.5 14.5t33.5 30.5l45 -31q-13 -17 -26 -32.5t-27.5 -28t-32 -20t-38.5 -7.5z" />
    <glyph glyph-name="adieresis" unicode="&#xe4;" horiz-adv-x="520" 
d="M370 0l-9 78q-12 -16 -28 -32t-36.5 -28.5t-47.5 -20t-61 -7.5q-30 0 -57.5 8.5t-48.5 27t-33.5 47.5t-12.5 70q0 53 20 88.5t58.5 57t93.5 30.5t124 9h26v17q0 60 -23 89t-89 29q-45 0 -89 -9.5t-79 -20.5l-16 68q43 15 94.5 26t102.5 11q94 0 143.5 -41.5t49.5 -140.5
v-356h-82zM358 265h-43q-99 0 -142 -27.5t-43 -81.5q0 -39 18 -65t69 -26q29 0 52 9t40.5 22t29.5 27t19 24v118zM429 678q0 -26 -17 -42.5t-41 -16.5t-41 16.5t-17 42.5q0 24 17 41t41 17t41 -17t17 -41zM205 678q0 -26 -16.5 -42.5t-40.5 -16.5t-41 16.5t-17 42.5
q0 24 17 41t41 17t40.5 -17t16.5 -41z" />
    <glyph glyph-name="aring" unicode="&#xe5;" horiz-adv-x="520" 
d="M370 0l-9 78q-12 -16 -28 -32t-36.5 -28.5t-47.5 -20t-61 -7.5q-30 0 -57.5 8.5t-48.5 27t-33.5 47.5t-12.5 70q0 53 20 88.5t58.5 57t93.5 30.5t124 9h26v17q0 60 -23 89t-89 29q-45 0 -89 -9.5t-79 -20.5l-16 68q43 15 94.5 26t102.5 11q94 0 143.5 -41.5t49.5 -140.5
v-356h-82zM358 265h-43q-99 0 -142 -27.5t-43 -81.5q0 -39 18 -65t69 -26q29 0 52 9t40.5 22t29.5 27t19 24v118zM260 606q-50 0 -80.5 32.5t-30.5 78.5q0 47 30.5 79.5t80.5 32.5t80.5 -32.5t30.5 -79.5q0 -46 -30.5 -78.5t-80.5 -32.5zM260 776q-29 0 -43 -17.5t-14 -41.5
q0 -23 14 -40.5t43 -17.5q28 0 42 17t14 41t-14 41.5t-42 17.5z" />
    <glyph glyph-name="ae" unicode="&#xe6;" horiz-adv-x="835" 
d="M451 244q0 -50 11.5 -84t31.5 -54.5t47 -29t58 -8.5q37 0 74.5 8.5t67.5 23.5l25 -69q-25 -14 -73.5 -27.5t-112.5 -13.5q-56 0 -105.5 23t-79.5 79q-39 -45 -87 -73.5t-119 -28.5q-30 0 -58 8.5t-49 27t-33.5 47.5t-12.5 70q0 49 19.5 82t56.5 52.5t91 27.5t123 8h32v32
q0 36 -7 59t-21.5 36t-35.5 18t-48 5q-45 0 -89 -9.5t-79 -20.5l-16 68q43 15 94.5 26t102.5 11q64 0 104.5 -22t57.5 -64q26 41 68 63.5t90 22.5q58 0 98.5 -23t65.5 -61t36 -86.5t11 -99.5v-24h-339zM692 307q-2 44 -12 74t-26 48.5t-36.5 26.5t-43.5 8t-44.5 -9.5
t-38.5 -29t-28 -49t-12 -69.5h241zM368 152q-6 24 -7.5 47.5t-2.5 52.5h-42q-99 0 -142.5 -23.5t-43.5 -72.5q0 -39 18 -65t69 -26q28 0 51.5 8.5t42.5 21.5t33 28t24 29z" />
    <glyph glyph-name="ccedilla" unicode="&#xe7;" horiz-adv-x="423" 
d="M354 -131q0 -27 -11 -45.5t-29 -30.5t-40.5 -17.5t-46.5 -5.5q-19 0 -40.5 3.5t-36.5 9.5l16 51q11 -3 25.5 -6.5t29.5 -3.5q22 0 42 10.5t20 36.5q0 12 -5.5 19t-14.5 10.5t-20 4.5t-22 1t-22.5 -1t-18.5 -3l28 93q-163 30 -163 269q0 136 53 205t160 69q55 0 90 -11.5
t60 -23.5l-25 -71q-22 11 -49.5 19.5t-61.5 8.5q-71 0 -100.5 -48t-29.5 -148t29.5 -148t99.5 -48q35 0 66.5 8.5t54.5 19.5l26 -71q-27 -13 -66 -24t-93 -11l-11 -36q2 1 6.5 1h8.5q37 0 64 -19t27 -67z" />
    <glyph glyph-name="egrave" unicode="&#xe8;" horiz-adv-x="526" 
d="M481 268v-13t-1 -13h-338q0 -50 11.5 -83t31.5 -53.5t47 -29t58 -8.5q37 0 74.5 8.5t67.5 23.5l25 -69q-24 -14 -73 -27.5t-113 -13.5q-44 0 -84.5 13t-72 43.5t-50.5 81t-19 124.5t18 128t49 89t71.5 52t85.5 17q47 0 86 -17t67 -50.5t43.5 -84.5t15.5 -118zM383 305
q-2 45 -12 75t-26 49t-36.5 27t-43.5 8t-44.5 -9.5t-38.5 -29t-28 -49.5t-13 -71h242zM304 604l-174 136l59 70l153 -159z" />
    <glyph glyph-name="eacute" unicode="&#xe9;" horiz-adv-x="526" 
d="M481 268v-13t-1 -13h-338q0 -50 11.5 -83t31.5 -53.5t47 -29t58 -8.5q37 0 74.5 8.5t67.5 23.5l25 -69q-24 -14 -73 -27.5t-113 -13.5q-44 0 -84.5 13t-72 43.5t-50.5 81t-19 124.5t18 128t49 89t71.5 52t85.5 17q47 0 86 -17t67 -50.5t43.5 -84.5t15.5 -118zM383 305
q-2 45 -12 75t-26 49t-36.5 27t-43.5 8t-44.5 -9.5t-38.5 -29t-28 -49.5t-13 -71h242zM243 604l-40 47l154 159l59 -70z" />
    <glyph glyph-name="ecircumflex" unicode="&#xea;" horiz-adv-x="526" 
d="M481 268v-13t-1 -13h-338q0 -50 11.5 -83t31.5 -53.5t47 -29t58 -8.5q37 0 74.5 8.5t67.5 23.5l25 -69q-24 -14 -73 -27.5t-113 -13.5q-44 0 -84.5 13t-72 43.5t-50.5 81t-19 124.5t18 128t49 89t71.5 52t85.5 17q47 0 86 -17t67 -50.5t43.5 -84.5t15.5 -118zM383 305
q-2 45 -12 75t-26 49t-36.5 27t-43.5 8t-44.5 -9.5t-38.5 -29t-28 -49.5t-13 -71h242zM384 609l-119 95l-121 -95l-41 43l130 131h68l126 -131z" />
    <glyph glyph-name="edieresis" unicode="&#xeb;" horiz-adv-x="526" 
d="M481 268v-13t-1 -13h-338q0 -50 11.5 -83t31.5 -53.5t47 -29t58 -8.5q37 0 74.5 8.5t67.5 23.5l25 -69q-24 -14 -73 -27.5t-113 -13.5q-44 0 -84.5 13t-72 43.5t-50.5 81t-19 124.5t18 128t49 89t71.5 52t85.5 17q47 0 86 -17t67 -50.5t43.5 -84.5t15.5 -118zM383 305
q-2 45 -12 75t-26 49t-36.5 27t-43.5 8t-44.5 -9.5t-38.5 -29t-28 -49.5t-13 -71h242zM435 678q0 -26 -17 -42.5t-41 -16.5t-41 16.5t-17 42.5q0 24 17 41t41 17t41 -17t17 -41zM211 678q0 -26 -16.5 -42.5t-40.5 -16.5t-41 16.5t-17 42.5q0 24 17 41t41 17t40.5 -17
t16.5 -41z" />
    <glyph glyph-name="igrave" unicode="&#xec;" horiz-adv-x="237" 
d="M72 0v528h93v-528h-93zM159 604l-174 136l59 70l153 -159z" />
    <glyph glyph-name="iacute" unicode="&#xed;" horiz-adv-x="237" 
d="M72 0v528h93v-528h-93zM98 604l-40 47l154 159l59 -70z" />
    <glyph glyph-name="icircumflex" unicode="&#xee;" horiz-adv-x="237" 
d="M72 0v528h93v-528h-93zM239 609l-119 95l-121 -95l-41 43l130 131h68l126 -131z" />
    <glyph glyph-name="idieresis" unicode="&#xef;" horiz-adv-x="237" 
d="M72 0v528h93v-528h-93zM291 678q0 -26 -17 -42.5t-41 -16.5t-41 16.5t-17 42.5q0 24 17 41t41 17t41 -17t17 -41zM67 678q0 -26 -16.5 -42.5t-40.5 -16.5t-41 16.5t-17 42.5q0 24 17 41t41 17t40.5 -17t16.5 -41z" />
    <glyph glyph-name="eth" unicode="&#xf0;" horiz-adv-x="539" 
d="M493 261q0 -271 -225 -271q-105 0 -165 64.5t-60 202.5q0 129 54.5 197.5t163.5 68.5q15 0 39.5 -4t41.5 -12q-11 25 -30.5 50t-43.5 46l-68 -55l-39 49l60 48q-9 7 -20 14l-22 14q-12 7 -25 15l37 55q52 -22 93 -52l64 52l39 -49l-55 -42q78 -74 119.5 -175.5
t41.5 -215.5zM396 257q0 97 -29 146.5t-99 49.5q-69 0 -98.5 -49.5t-29.5 -146.5q0 -99 29.5 -147t98.5 -48q70 0 99 48t29 147z" />
    <glyph glyph-name="ntilde" unicode="&#xf1;" horiz-adv-x="579" 
d="M418 0v317q0 38 -3 64t-12 42.5t-26 24t-45 7.5q-22 0 -46 -9.5t-47 -23.5t-42.5 -29.5t-31.5 -27.5v-365h-92v397q0 47 -1.5 83.5t-1.5 47.5h86l5 -84q16 14 39.5 30.5t50.5 30.5t57 23.5t60 9.5q72 0 107.5 -40t35.5 -125v-373h-93zM357 620q-24 0 -41.5 7.5
t-39.5 18.5q-16 8 -29 15t-30 7q-22 0 -41 -15t-33 -31l-45 31q13 17 25.5 33t27.5 28.5t32 20t39 7.5q24 0 42 -7.5t37 -18.5q16 -9 30 -15.5t31 -6.5q21 0 40.5 14.5t33.5 30.5l45 -31q-13 -17 -26 -32.5t-27.5 -28t-32 -20t-38.5 -7.5z" />
    <glyph glyph-name="ograve" unicode="&#xf2;" horiz-adv-x="540" 
d="M495 264q0 -141 -60 -207.5t-165 -66.5q-106 0 -165.5 66.5t-59.5 207.5q0 140 59.5 207t165.5 67t165.5 -67t59.5 -207zM397 264q0 99 -29 150t-98 51q-70 0 -99 -51t-29 -150q0 -100 29 -151t99 -51q69 0 98 51t29 151zM309 604l-174 136l59 70l153 -159z" />
    <glyph glyph-name="oacute" unicode="&#xf3;" horiz-adv-x="540" 
d="M495 264q0 -141 -60 -207.5t-165 -66.5q-106 0 -165.5 66.5t-59.5 207.5q0 140 59.5 207t165.5 67t165.5 -67t59.5 -207zM397 264q0 99 -29 150t-98 51q-70 0 -99 -51t-29 -150q0 -100 29 -151t99 -51q69 0 98 51t29 151zM248 604l-40 47l154 159l59 -70z" />
    <glyph glyph-name="ocircumflex" unicode="&#xf4;" horiz-adv-x="540" 
d="M495 264q0 -141 -60 -207.5t-165 -66.5q-106 0 -165.5 66.5t-59.5 207.5q0 140 59.5 207t165.5 67t165.5 -67t59.5 -207zM397 264q0 99 -29 150t-98 51q-70 0 -99 -51t-29 -150q0 -100 29 -151t99 -51q69 0 98 51t29 151zM389 609l-119 95l-121 -95l-41 43l130 131h68
l126 -131z" />
    <glyph glyph-name="otilde" unicode="&#xf5;" horiz-adv-x="540" 
d="M495 264q0 -141 -60 -207.5t-165 -66.5q-106 0 -165.5 66.5t-59.5 207.5q0 140 59.5 207t165.5 67t165.5 -67t59.5 -207zM397 264q0 99 -29 150t-98 51q-70 0 -99 -51t-29 -150q0 -100 29 -151t99 -51q69 0 98 51t29 151zM337 620q-24 0 -41.5 7.5t-39.5 18.5
q-16 8 -29 15t-30 7q-22 0 -41 -15t-33 -31l-45 31q13 17 25.5 33t27.5 28.5t32 20t39 7.5q24 0 42 -7.5t37 -18.5q16 -9 30 -15.5t31 -6.5q21 0 40.5 14.5t33.5 30.5l45 -31q-13 -17 -26 -32.5t-27.5 -28t-32 -20t-38.5 -7.5z" />
    <glyph glyph-name="odieresis" unicode="&#xf6;" horiz-adv-x="540" 
d="M495 264q0 -141 -60 -207.5t-165 -66.5q-106 0 -165.5 66.5t-59.5 207.5q0 140 59.5 207t165.5 67t165.5 -67t59.5 -207zM397 264q0 99 -29 150t-98 51q-70 0 -99 -51t-29 -150q0 -100 29 -151t99 -51q69 0 98 51t29 151zM440 678q0 -26 -17 -42.5t-41 -16.5t-41 16.5
t-17 42.5q0 24 17 41t41 17t41 -17t17 -41zM216 678q0 -26 -16.5 -42.5t-40.5 -16.5t-41 16.5t-17 42.5q0 24 17 41t41 17t40.5 -17t16.5 -41z" />
    <glyph glyph-name="divide" unicode="&#xf7;" 
d="M336 514q0 -26 -18 -44t-44 -18t-44.5 18t-18.5 44t18.5 44.5t44.5 18.5t44 -18.5t18 -44.5zM60 302v75h430v-75h-430zM336 164q0 -26 -18 -44t-44 -18t-44.5 18t-18.5 44t18.5 44.5t44.5 18.5t44 -18.5t18 -44.5z" />
    <glyph glyph-name="oslash" unicode="&#xf8;" horiz-adv-x="540" 
d="M495 264q0 -141 -60 -207.5t-165 -66.5q-45 0 -82 11.5t-66 36.5l-47 -59l-44 34l55 68q-41 67 -41 183q0 140 59.5 207t165.5 67q89 0 146 -48l50 62l43 -34l-57 -71q43 -68 43 -183zM397 264q0 30 -3 55t-8 47l-210 -261q31 -43 94 -43q69 0 98 51t29 151zM142 264
q0 -62 10 -102l210 261q-32 42 -92 42q-70 0 -99 -51t-29 -150z" />
    <glyph glyph-name="ugrave" unicode="&#xf9;" horiz-adv-x="576" 
d="M425 0l-9 83q-16 -15 -38 -31t-48 -30t-55 -23t-60 -9q-72 0 -110 39.5t-38 124.5v374h94v-315q0 -36 3 -62t12 -42.5t25 -24.5t42 -8q50 0 93 25t77 59v368h93v-528h-81zM327 604l-174 136l59 70l153 -159z" />
    <glyph glyph-name="uacute" unicode="&#xfa;" horiz-adv-x="576" 
d="M425 0l-9 83q-16 -15 -38 -31t-48 -30t-55 -23t-60 -9q-72 0 -110 39.5t-38 124.5v374h94v-315q0 -36 3 -62t12 -42.5t25 -24.5t42 -8q50 0 93 25t77 59v368h93v-528h-81zM266 604l-40 47l154 159l59 -70z" />
    <glyph glyph-name="ucircumflex" unicode="&#xfb;" horiz-adv-x="576" 
d="M425 0l-9 83q-16 -15 -38 -31t-48 -30t-55 -23t-60 -9q-72 0 -110 39.5t-38 124.5v374h94v-315q0 -36 3 -62t12 -42.5t25 -24.5t42 -8q50 0 93 25t77 59v368h93v-528h-81zM407 609l-119 95l-121 -95l-41 43l130 131h68l126 -131z" />
    <glyph glyph-name="udieresis" unicode="&#xfc;" horiz-adv-x="576" 
d="M425 0l-9 83q-16 -15 -38 -31t-48 -30t-55 -23t-60 -9q-72 0 -110 39.5t-38 124.5v374h94v-315q0 -36 3 -62t12 -42.5t25 -24.5t42 -8q50 0 93 25t77 59v368h93v-528h-81zM459 678q0 -26 -17 -42.5t-41 -16.5t-41 16.5t-17 42.5q0 24 17 41t41 17t41 -17t17 -41zM235 678
q0 -26 -16.5 -42.5t-40.5 -16.5t-41 16.5t-17 42.5q0 24 17 41t41 17t40.5 -17t16.5 -41z" />
    <glyph glyph-name="yacute" unicode="&#xfd;" horiz-adv-x="481" 
d="M261 -70q-18 -52 -34 -81.5t-32.5 -44.5t-33.5 -18.5t-38 -3.5q-19 0 -34 4t-29 10l16 69q5 -2 15.5 -5t25.5 -3q20 0 34.5 21t30.5 68l12 35l-184 547h101l127 -440l135 440h96zM220 604l-40 47l154 159l59 -70z" />
    <glyph glyph-name="thorn" unicode="&#xfe;" horiz-adv-x="572" 
d="M527 263q0 -77 -17 -129t-44.5 -84t-61.5 -46t-67 -14q-45 0 -86.5 12t-86.5 46v-256h-92v937h93v-290q42 52 91.5 75t94.5 23q33 0 64.5 -14t56 -46t40 -84.5t15.5 -129.5zM429 259q0 103 -26 149t-87 46q-20 0 -41.5 -8.5t-42 -23t-38 -33.5t-29.5 -39v-226
q29 -26 67 -43t79 -17q60 0 89 46t29 149z" />
    <glyph glyph-name="ydieresis" unicode="&#xff;" horiz-adv-x="481" 
d="M261 -70q-18 -52 -34 -81.5t-32.5 -44.5t-33.5 -18.5t-38 -3.5q-19 0 -34 4t-29 10l16 69q5 -2 15.5 -5t25.5 -3q20 0 34.5 21t30.5 68l12 35l-184 547h101l127 -440l135 440h96zM412 678q0 -26 -17 -42.5t-41 -16.5t-41 16.5t-17 42.5q0 24 17 41t41 17t41 -17t17 -41z
M188 678q0 -26 -16.5 -42.5t-40.5 -16.5t-41 16.5t-17 42.5q0 24 17 41t41 17t40.5 -17t16.5 -41z" />
    <glyph glyph-name="Amacron" unicode="&#x100;" horiz-adv-x="569" 
d="M448 0l-42 131h-247l-43 -131h-100l215 667h108l214 -667h-105zM283 547l-104 -340h207zM134 750v69h303v-69h-303z" />
    <glyph glyph-name="amacron" unicode="&#x101;" horiz-adv-x="520" 
d="M370 0l-9 78q-12 -16 -28 -32t-36.5 -28.5t-47.5 -20t-61 -7.5q-30 0 -57.5 8.5t-48.5 27t-33.5 47.5t-12.5 70q0 53 20 88.5t58.5 57t93.5 30.5t124 9h26v17q0 60 -23 89t-89 29q-45 0 -89 -9.5t-79 -20.5l-16 68q43 15 94.5 26t102.5 11q94 0 143.5 -41.5t49.5 -140.5
v-356h-82zM358 265h-43q-99 0 -142 -27.5t-43 -81.5q0 -39 18 -65t69 -26q29 0 52 9t40.5 22t29.5 27t19 24v118zM107 636v69h303v-69h-303z" />
    <glyph glyph-name="Abreve" unicode="&#x102;" horiz-adv-x="569" 
d="M448 0l-42 131h-247l-43 -131h-100l215 667h108l214 -667h-105zM283 547l-104 -340h207zM285 729q-75 0 -112 36t-37 105h62q0 -14 4.5 -27t14.5 -23t26.5 -16t41.5 -6q50 0 68.5 21.5t19.5 50.5h62q-2 -68 -38.5 -104.5t-111.5 -36.5z" />
    <glyph glyph-name="abreve" unicode="&#x103;" horiz-adv-x="520" 
d="M370 0l-9 78q-12 -16 -28 -32t-36.5 -28.5t-47.5 -20t-61 -7.5q-30 0 -57.5 8.5t-48.5 27t-33.5 47.5t-12.5 70q0 53 20 88.5t58.5 57t93.5 30.5t124 9h26v17q0 60 -23 89t-89 29q-45 0 -89 -9.5t-79 -20.5l-16 68q43 15 94.5 26t102.5 11q94 0 143.5 -41.5t49.5 -140.5
v-356h-82zM358 265h-43q-99 0 -142 -27.5t-43 -81.5q0 -39 18 -65t69 -26q29 0 52 9t40.5 22t29.5 27t19 24v118zM259 615q-75 0 -112 36t-37 105h62q0 -14 4.5 -27t14.5 -23t26.5 -16t41.5 -6q50 0 68.5 21.5t19.5 50.5h62q-2 -68 -38.5 -104.5t-111.5 -36.5z" />
    <glyph glyph-name="Aogonek" unicode="&#x104;" horiz-adv-x="569" 
d="M571 -198q-3 -2 -12 -7t-22.5 -10.5t-33 -10t-43.5 -4.5q-48 0 -76.5 24.5t-28.5 67.5q0 21 8.5 40.5t21.5 37t29.5 33t33.5 27.5l-42 131h-247l-43 -131h-100l215 667h108l214 -667h-23q-6 0 -22.5 -9.5t-34.5 -26.5t-31.5 -39.5t-13.5 -48.5q0 -19 12.5 -33t34.5 -14
q25 0 44.5 7t30.5 15zM283 547l-104 -340h207z" />
    <glyph glyph-name="aogonek" unicode="&#x105;" horiz-adv-x="520" 
d="M493 -198q-3 -2 -12 -7t-22.5 -10.5t-33 -10t-43.5 -4.5q-48 0 -76.5 24.5t-28.5 67.5q0 21 8.5 40.5t21.5 37t29.5 33t33.5 27.5l-9 78q-12 -16 -28 -32t-36.5 -28.5t-47.5 -20t-61 -7.5q-30 0 -57.5 8.5t-48.5 27t-33.5 47.5t-12.5 70q0 53 20 88.5t58.5 57t93.5 30.5
t124 9h26v17q0 60 -23 89t-89 29q-45 0 -89 -9.5t-79 -20.5l-16 68q43 15 94.5 26t102.5 11q94 0 143.5 -41.5t49.5 -140.5v-356q-6 0 -22.5 -9.5t-34.5 -26.5t-31.5 -39.5t-13.5 -48.5q0 -19 12.5 -33t34.5 -14q25 0 44.5 7t30.5 15zM358 265h-43q-99 0 -142 -27.5
t-43 -81.5q0 -39 18 -65t69 -26q29 0 52 9t40.5 22t29.5 27t19 24v118z" />
    <glyph glyph-name="Cacute" unicode="&#x106;" horiz-adv-x="506" 
d="M480 22q-32 -14 -74.5 -24t-97.5 -10q-69 0 -117.5 21.5t-79 65t-44.5 108t-14 151.5q0 85 14 149.5t44.5 108t79.5 65.5t118 22q59 0 98 -12t63 -22l-26 -76q-23 10 -53 19t-70 9q-48 0 -80 -18t-52 -51.5t-28.5 -82.5t-8.5 -111q0 -61 8 -109.5t27.5 -82.5t52 -52.5
t80.5 -18.5q40 0 73.5 8.5t62.5 19.5zM263 718l-40 47l154 159l59 -70z" />
    <glyph glyph-name="cacute" unicode="&#x107;" horiz-adv-x="423" 
d="M418 25q-27 -13 -66 -24t-94 -11q-213 0 -213 274q0 136 53 205t160 69q55 0 90 -11.5t60 -23.5l-25 -71q-22 11 -49.5 19.5t-61.5 8.5q-71 0 -100.5 -48t-29.5 -148t29.5 -148t99.5 -48q35 0 66.5 8.5t54.5 19.5zM225 604l-40 47l154 159l59 -70z" />
    <glyph glyph-name="Cdotaccent" unicode="&#x10a;" horiz-adv-x="506" 
d="M480 22q-32 -14 -74.5 -24t-97.5 -10q-69 0 -117.5 21.5t-79 65t-44.5 108t-14 151.5q0 85 14 149.5t44.5 108t79.5 65.5t118 22q59 0 98 -12t63 -22l-26 -76q-23 10 -53 19t-70 9q-48 0 -80 -18t-52 -51.5t-28.5 -82.5t-8.5 -111q0 -61 8 -109.5t27.5 -82.5t52 -52.5
t80.5 -18.5q40 0 73.5 8.5t62.5 19.5zM346 793q0 -27 -17.5 -45t-43.5 -18t-44 18t-18 45q0 26 18 44.5t44 18.5t43.5 -18.5t17.5 -44.5z" />
    <glyph glyph-name="cdotaccent" unicode="&#x10b;" horiz-adv-x="423" 
d="M418 25q-27 -13 -66 -24t-94 -11q-213 0 -213 274q0 136 53 205t160 69q55 0 90 -11.5t60 -23.5l-25 -71q-22 11 -49.5 19.5t-61.5 8.5q-71 0 -100.5 -48t-29.5 -148t29.5 -148t99.5 -48q35 0 66.5 8.5t54.5 19.5zM308 679q0 -27 -17.5 -45t-43.5 -18t-44 18t-18 45
q0 26 18 44.5t44 18.5t43.5 -18.5t17.5 -44.5z" />
    <glyph glyph-name="Ccaron" unicode="&#x10c;" horiz-adv-x="506" 
d="M480 22q-32 -14 -74.5 -24t-97.5 -10q-69 0 -117.5 21.5t-79 65t-44.5 108t-14 151.5q0 85 14 149.5t44.5 108t79.5 65.5t118 22q59 0 98 -12t63 -22l-26 -76q-23 10 -53 19t-70 9q-48 0 -80 -18t-52 -51.5t-28.5 -82.5t-8.5 -111q0 -61 8 -109.5t27.5 -82.5t52 -52.5
t80.5 -18.5q40 0 73.5 8.5t62.5 19.5zM325 732h-68l-126 131l42 43l119 -94l121 94l42 -43z" />
    <glyph glyph-name="ccaron" unicode="&#x10d;" horiz-adv-x="423" 
d="M418 25q-27 -13 -66 -24t-94 -11q-213 0 -213 274q0 136 53 205t160 69q55 0 90 -11.5t60 -23.5l-25 -71q-22 11 -49.5 19.5t-61.5 8.5q-71 0 -100.5 -48t-29.5 -148t29.5 -148t99.5 -48q35 0 66.5 8.5t54.5 19.5zM284 618h-68l-126 131l42 43l119 -94l121 94l42 -43z
" />
    <glyph glyph-name="Dcaron" unicode="&#x10e;" horiz-adv-x="586" 
d="M532 334q0 -108 -19 -173.5t-56 -101t-91 -47.5t-124 -12h-161v667h161q70 0 124 -12t91 -47.5t56 -101t19 -172.5zM433 334q0 77 -11.5 126.5t-34 78t-57.5 39.5t-81 11h-71v-512h71q46 0 81 11t57.5 40t34 78.5t11.5 127.5zM325 732h-68l-126 131l42 43l119 -94l121 94
l42 -43z" />
    <glyph glyph-name="dcaron" unicode="&#x10f;" horiz-adv-x="573" 
d="M419 0l-8 91q-45 -55 -95 -78t-95 -23q-33 0 -64.5 13.5t-56 45.5t-40 84t-15.5 129q0 76 16.5 129t43.5 85t61 46.5t68 14.5q43 0 84.5 -12.5t89.5 -45.5v250h93v-729h-82zM408 393q-30 26 -67.5 44t-78.5 18q-60 0 -89 -43.5t-29 -145.5q0 -103 26.5 -149t87.5 -46
q20 0 42 9.5t42 25t37.5 35t28.5 39.5v213zM684 769q0 -17 -7.5 -36.5t-19.5 -40t-26.5 -41t-28.5 -39.5l-34 22q10 16 21.5 38.5t11.5 39.5q0 9 -3.5 16t-7.5 13.5t-7.5 15t-3.5 20.5q0 23 16 37t36 14q25 0 39 -16.5t14 -42.5z" />
    <glyph glyph-name="Dcroat" unicode="&#x110;" horiz-adv-x="598" 
d="M544 334q0 -108 -19.5 -173.5t-56.5 -101t-91 -47.5t-124 -12h-160v309h-74l-5 70h79v288h160q70 0 124 -12t91 -47.5t56.5 -101t19.5 -172.5zM445 334q0 77 -11.5 126.5t-34.5 78t-58 39.5t-81 11h-70v-210h115v-70h-115v-232h70q46 0 81 11t58 40t34.5 78.5t11.5 127.5
z" />
    <glyph glyph-name="dcroat" unicode="&#x111;" horiz-adv-x="574" 
d="M564 578h-63v-578h-82l-8 91q-45 -55 -95 -78t-95 -23q-33 0 -64.5 13.5t-56 45t-40 83t-15.5 128.5q0 76 16.5 128t43.5 84.5t61 46.5t68 14q43 0 84.5 -12.5t89.5 -45.5v103h-67l-7 71h74v80h93v-80h73zM408 389q-30 26 -67.5 44t-78.5 18q-60 0 -89 -43t-29 -144
q0 -102 26.5 -147.5t87.5 -45.5q20 0 42 9.5t42 25t37.5 35t28.5 39.5v209z" />
    <glyph glyph-name="dcroat" unicode="&#x2202;" horiz-adv-x="574" 
d="M564 578h-63v-578h-82l-8 91q-45 -55 -95 -78t-95 -23q-33 0 -64.5 13.5t-56 45t-40 83t-15.5 128.5q0 76 16.5 128t43.5 84.5t61 46.5t68 14q43 0 84.5 -12.5t89.5 -45.5v103h-67l-7 71h74v80h93v-80h73zM408 389q-30 26 -67.5 44t-78.5 18q-60 0 -89 -43t-29 -144
q0 -102 26.5 -147.5t87.5 -45.5q20 0 42 9.5t42 25t37.5 35t28.5 39.5v209z" />
    <glyph glyph-name="Emacron" unicode="&#x112;" horiz-adv-x="492" 
d="M81 0v667h376l-13 -83h-266v-201h213v-77h-213v-224h270l13 -82h-380zM110 750v69h303v-69h-303z" />
    <glyph glyph-name="emacron" unicode="&#x113;" horiz-adv-x="526" 
d="M481 268v-13t-1 -13h-338q0 -50 11.5 -83t31.5 -53.5t47 -29t58 -8.5q37 0 74.5 8.5t67.5 23.5l25 -69q-24 -14 -73 -27.5t-113 -13.5q-44 0 -84.5 13t-72 43.5t-50.5 81t-19 124.5t18 128t49 89t71.5 52t85.5 17q47 0 86 -17t67 -50.5t43.5 -84.5t15.5 -118zM383 305
q-2 45 -12 75t-26 49t-36.5 27t-43.5 8t-44.5 -9.5t-38.5 -29t-28 -49.5t-13 -71h242zM114 636v69h303v-69h-303z" />
    <glyph glyph-name="Edotaccent" unicode="&#x116;" horiz-adv-x="492" 
d="M81 0v667h376l-13 -83h-266v-201h213v-77h-213v-224h270l13 -82h-380zM323 793q0 -27 -17.5 -45t-43.5 -18t-44 18t-18 45q0 26 18 44.5t44 18.5t43.5 -18.5t17.5 -44.5z" />
    <glyph glyph-name="edotaccent" unicode="&#x117;" horiz-adv-x="526" 
d="M481 268v-13t-1 -13h-338q0 -50 11.5 -83t31.5 -53.5t47 -29t58 -8.5q37 0 74.5 8.5t67.5 23.5l25 -69q-24 -14 -73 -27.5t-113 -13.5q-44 0 -84.5 13t-72 43.5t-50.5 81t-19 124.5t18 128t49 89t71.5 52t85.5 17q47 0 86 -17t67 -50.5t43.5 -84.5t15.5 -118zM383 305
q-2 45 -12 75t-26 49t-36.5 27t-43.5 8t-44.5 -9.5t-38.5 -29t-28 -49.5t-13 -71h242zM327 679q0 -27 -17.5 -45t-43.5 -18t-44 18t-18 45q0 26 18 44.5t44 18.5t43.5 -18.5t17.5 -44.5z" />
    <glyph glyph-name="Eogonek" unicode="&#x118;" horiz-adv-x="492" 
d="M476 -198q-3 -2 -12 -7t-22.5 -10.5t-33 -10t-43.5 -4.5q-48 0 -76.5 24.5t-28.5 67.5q0 21 8.5 40.5t22.5 37.5t32 33.5t38 26.5h-280v667h376l-13 -83h-266v-201h213v-77h-213v-224h270l13 -82h-17q-9 0 -27.5 -9.5t-37 -26t-32.5 -39.5t-14 -49q0 -19 12.5 -33
t34.5 -14q25 0 44.5 7t30.5 15z" />
    <glyph glyph-name="eogonek" unicode="&#x119;" horiz-adv-x="526" 
d="M481 268v-13t-1 -13h-338q0 -50 11.5 -83t31.5 -53.5t47 -29t58 -8.5q38 0 75 8.5t66 24.5l27 -69q-20 -12 -44 -28.5t-44.5 -36t-34.5 -43t-14 -48.5q0 -19 12.5 -33t34.5 -14q25 0 44.5 7t30.5 15l21 -49q-3 -2 -12 -7t-22.5 -10.5t-33 -10t-43.5 -4.5
q-48 0 -76.5 24.5t-28.5 67.5q0 39 28 75t69 65q-22 -8 -39.5 -10t-34.5 -2q-44 0 -84.5 13t-72 43.5t-50.5 81t-19 124.5t18 128t49 89t71.5 52t85.5 17q47 0 86 -17t67 -50.5t43.5 -84.5t15.5 -118zM383 305q-2 45 -12 75t-26 49t-36.5 27t-43.5 8t-44.5 -9.5t-38.5 -29
t-28 -49.5t-13 -71h242z" />
    <glyph glyph-name="Ecaron" unicode="&#x11a;" horiz-adv-x="492" 
d="M81 0v667h376l-13 -83h-266v-201h213v-77h-213v-224h270l13 -82h-380zM294 732h-68l-126 131l42 43l119 -94l121 94l42 -43z" />
    <glyph glyph-name="ecaron" unicode="&#x11b;" horiz-adv-x="526" 
d="M481 268v-13t-1 -13h-338q0 -50 11.5 -83t31.5 -53.5t47 -29t58 -8.5q37 0 74.5 8.5t67.5 23.5l25 -69q-24 -14 -73 -27.5t-113 -13.5q-44 0 -84.5 13t-72 43.5t-50.5 81t-19 124.5t18 128t49 89t71.5 52t85.5 17q47 0 86 -17t67 -50.5t43.5 -84.5t15.5 -118zM383 305
q-2 45 -12 75t-26 49t-36.5 27t-43.5 8t-44.5 -9.5t-38.5 -29t-28 -49.5t-13 -71h242zM298 618h-68l-126 131l42 43l119 -94l121 94l42 -43z" />
    <glyph glyph-name="Gbreve" unicode="&#x11e;" horiz-adv-x="574" 
d="M514 33q-33 -17 -82 -31t-117 -14q-141 0 -201 87t-60 259q0 85 15 149.5t46.5 108t81 65.5t119.5 22q60 0 106.5 -15t77.5 -31l-29 -74q-29 14 -67 25.5t-76 11.5q-51 0 -84.5 -17.5t-53.5 -51t-28 -82.5t-8 -111q0 -61 8.5 -109.5t29 -83t54.5 -53t85 -18.5
q26 0 49 4.5t43 12.5v207h-88l-10 77h189v-338zM292 729q-75 0 -112 36t-37 105h62q0 -14 4.5 -27t14.5 -23t26.5 -16t41.5 -6q50 0 68.5 21.5t19.5 50.5h62q-2 -68 -38.5 -104.5t-111.5 -36.5z" />
    <glyph glyph-name="gbreve" unicode="&#x11f;" horiz-adv-x="573" 
d="M502 528q0 -21 -1 -46t-1 -60v-399q0 -73 -16.5 -119.5t-47.5 -73.5t-74 -37.5t-97 -10.5q-20 0 -44.5 2.5t-49.5 7t-49 10t-42 11.5l15 70q18 -6 39 -10.5t42.5 -8t42 -5.5t38.5 -2q30 0 57 5t48 21t33 46.5t12 80.5v82q-42 -54 -91.5 -76.5t-94.5 -22.5
q-33 0 -64.5 13.5t-56.5 45t-40 83t-15 128.5q0 76 16.5 128.5t43.5 85t60.5 47t67.5 14.5q49 0 94 -17t84 -46l6 53h85zM407 391q-30 26 -67.5 45t-78.5 19q-60 0 -89 -43.5t-29 -145.5q0 -103 25.5 -148.5t87.5 -45.5q21 0 43 10t42.5 26t37.5 36.5t28 40.5v206zM285 615
q-75 0 -112 36t-37 105h62q0 -14 4.5 -27t14.5 -23t26.5 -16t41.5 -6q50 0 68.5 21.5t19.5 50.5h62q-2 -68 -38.5 -104.5t-111.5 -36.5z" />
    <glyph glyph-name="Gdotaccent" unicode="&#x120;" horiz-adv-x="574" 
d="M514 33q-33 -17 -82 -31t-117 -14q-141 0 -201 87t-60 259q0 85 15 149.5t46.5 108t81 65.5t119.5 22q60 0 106.5 -15t77.5 -31l-29 -74q-29 14 -67 25.5t-76 11.5q-51 0 -84.5 -17.5t-53.5 -51t-28 -82.5t-8 -111q0 -61 8.5 -109.5t29 -83t54.5 -53t85 -18.5
q26 0 49 4.5t43 12.5v207h-88l-10 77h189v-338zM354 793q0 -27 -17.5 -45t-43.5 -18t-44 18t-18 45q0 26 18 44.5t44 18.5t43.5 -18.5t17.5 -44.5z" />
    <glyph glyph-name="gdotaccent" unicode="&#x121;" horiz-adv-x="573" 
d="M502 528q0 -21 -1 -46t-1 -60v-399q0 -73 -16.5 -119.5t-47.5 -73.5t-74 -37.5t-97 -10.5q-20 0 -44.5 2.5t-49.5 7t-49 10t-42 11.5l15 70q18 -6 39 -10.5t42.5 -8t42 -5.5t38.5 -2q30 0 57 5t48 21t33 46.5t12 80.5v82q-42 -54 -91.5 -76.5t-94.5 -22.5
q-33 0 -64.5 13.5t-56.5 45t-40 83t-15 128.5q0 76 16.5 128.5t43.5 85t60.5 47t67.5 14.5q49 0 94 -17t84 -46l6 53h85zM407 391q-30 26 -67.5 45t-78.5 19q-60 0 -89 -43.5t-29 -145.5q0 -103 25.5 -148.5t87.5 -45.5q21 0 43 10t42.5 26t37.5 36.5t28 40.5v206zM347 679
q0 -27 -17.5 -45t-43.5 -18t-44 18t-18 45q0 26 18 44.5t44 18.5t43.5 -18.5t17.5 -44.5z" />
    <glyph glyph-name="Gcommaaccent" unicode="&#x122;" horiz-adv-x="574" 
d="M514 33q-33 -17 -82 -31t-117 -14q-141 0 -201 87t-60 259q0 85 15 149.5t46.5 108t81 65.5t119.5 22q60 0 106.5 -15t77.5 -31l-29 -74q-29 14 -67 25.5t-76 11.5q-51 0 -84.5 -17.5t-53.5 -51t-28 -82.5t-8 -111q0 -61 8.5 -109.5t29 -83t54.5 -53t85 -18.5
q26 0 49 4.5t43 12.5v207h-88l-10 77h189v-338zM359 -95q0 -17 -7.5 -36.5t-19.5 -40t-26.5 -41t-28.5 -39.5l-34 22q10 16 21.5 38.5t11.5 39.5q0 9 -3.5 16t-7.5 13.5t-7.5 15t-3.5 20.5q0 23 16 37t36 14q25 0 39 -16.5t14 -42.5z" />
    <glyph glyph-name="gcommaaccent" unicode="&#x123;" horiz-adv-x="573" 
d="M502 528q0 -21 -1 -46t-1 -60v-399q0 -73 -16.5 -119.5t-47.5 -73.5t-74 -37.5t-97 -10.5q-20 0 -44.5 2.5t-49.5 7t-49 10t-42 11.5l15 70q18 -6 39 -10.5t42.5 -8t42 -5.5t38.5 -2q30 0 57 5t48 21t33 46.5t12 80.5v82q-42 -54 -91.5 -76.5t-94.5 -22.5
q-33 0 -64.5 13.5t-56.5 45t-40 83t-15 128.5q0 76 16.5 128.5t43.5 85t60.5 47t67.5 14.5q49 0 94 -17t84 -46l6 53h85zM407 391q-30 26 -67.5 45t-78.5 19q-60 0 -89 -43.5t-29 -145.5q0 -103 25.5 -148.5t87.5 -45.5q21 0 43 10t42.5 26t37.5 36.5t28 40.5v206z
M234.018 674.994q0 16.999 7.5 36.498t19.499 39.9971q11.999 20.499 26.498 40.998q14.499 20.498 28.498 39.4971l33.998 -21.998q-9.99902 -15.999 -21.498 -38.498q-11.5 -22.499 -11.5 -39.498q0 -8.99902 3.5 -15.998q3.5 -7 7.5 -13.5
q3.99902 -6.49902 7.49902 -14.999q3.5 -8.49902 3.5 -20.498q0 -22.999 -15.999 -36.998t-35.998 -13.999q-24.998 0 -38.9971 16.499q-14 16.499 -14 42.4971z" />
    <glyph glyph-name="Hbar" unicode="&#x126;" horiz-adv-x="665" 
d="M646 498h-74v-498h-96v303h-286v-303h-97v498h-74l-5 70h79v99h97v-99h286v99h96v-99h80zM476 498h-286v-114h286v114z" />
    <glyph glyph-name="hbar" unicode="&#x127;" horiz-adv-x="580" 
d="M0 649h74v80h93v-80h143l-10 -71h-133v-138q15 15 37.5 31.5t49 30.5t56 23t60.5 9q142 0 142 -166v-368h-93v314q0 38 -3 64t-12 42.5t-26 23.5t-45 7q-22 0 -45 -8.5t-45 -22t-41.5 -29.5t-34.5 -30v-361h-93v578h-67z" />
    <glyph glyph-name="Imacron" unicode="&#x12a;" horiz-adv-x="259" 
d="M81 0v667h97v-667h-97zM-21 750v69h303v-69h-303z" />
    <glyph glyph-name="imacron" unicode="&#x12b;" horiz-adv-x="237" 
d="M72 0v528h93v-528h-93zM-32 636v69h303v-69h-303z" />
    <glyph glyph-name="Iogonek" unicode="&#x12e;" horiz-adv-x="259" 
d="M232 -198q-3 -2 -12 -7t-22.5 -10.5t-33 -10t-43.5 -4.5q-48 0 -76.5 24.5t-28.5 67.5q0 21 8.5 40.5t21.5 37t29.5 33t33.5 27.5h-28v667h97v-667q-15 -10 -30.5 -23t-28.5 -29t-21.5 -34t-8.5 -38q0 -19 12.5 -33t34.5 -14q25 0 44.5 7t30.5 15z" />
    <glyph glyph-name="iogonek" unicode="&#x12f;" horiz-adv-x="237" 
d="M178 684q0 -25 -17 -42t-42 -17q-26 0 -43 17t-17 42t17 42.5t43 17.5q24 0 41.5 -17.5t17.5 -42.5zM219 -198q-3 -2 -12 -7t-22.5 -10.5t-33 -10t-43.5 -4.5q-48 0 -76.5 24.5t-28.5 67.5q0 21 8.5 40.5t21.5 37t29.5 33t33.5 27.5h-24v528h93v-528q-15 -10 -30.5 -23
t-28.5 -29t-21.5 -34t-8.5 -38q0 -19 12.5 -33t34.5 -14q25 0 44.5 7t30.5 15z" />
    <glyph glyph-name="Idotaccent" unicode="&#x130;" horiz-adv-x="259" 
d="M81 0v667h97v-667h-97zM192 793q0 -27 -17.5 -45t-43.5 -18t-44 18t-18 45q0 26 18 44.5t44 18.5t43.5 -18.5t17.5 -44.5z" />
    <glyph glyph-name="dotlessi" unicode="&#x131;" horiz-adv-x="237" 
d="M72 0v528h93v-528h-93z" />
    <glyph glyph-name="Kcommaaccent" unicode="&#x136;" horiz-adv-x="529" 
d="M407 0l-229 311v-311h-97v667h97v-289l218 289h110l-246 -320l266 -347h-119zM323 -95q0 -17 -7.5 -36.5t-19.5 -40t-26.5 -41t-28.5 -39.5l-34 22q10 16 21.5 38.5t11.5 39.5q0 9 -3.5 16t-7.5 13.5t-7.5 15t-3.5 20.5q0 23 16 37t36 14q25 0 39 -16.5t14 -42.5z" />
    <glyph glyph-name="kcommaaccent" unicode="&#x137;" horiz-adv-x="502" 
d="M393 0l-228 257v-257h-93v729h93v-416l212 215h113l-243 -238l265 -290h-119zM314 -95q0 -17 -7.5 -36.5t-19.5 -40t-26.5 -41t-28.5 -39.5l-34 22q10 16 21.5 38.5t11.5 39.5q0 9 -3.5 16t-7.5 13.5t-7.5 15t-3.5 20.5q0 23 16 37t36 14q25 0 39 -16.5t14 -42.5z" />
    <glyph glyph-name="Lacute" unicode="&#x139;" horiz-adv-x="433" 
d="M81 0v667h97v-582h233l12 -85h-342zM196 718l-40 47l154 159l59 -70z" />
    <glyph glyph-name="lacute" unicode="&#x13a;" horiz-adv-x="237" 
d="M72 0v729h93v-729h-93zM100 780l-40 47l154 159l59 -70z" />
    <glyph glyph-name="Lcommaaccent" unicode="&#x13b;" horiz-adv-x="433" 
d="M81 0v667h97v-582h233l12 -85h-342zM273 -95q0 -17 -7.5 -36.5t-19.5 -40t-26.5 -41t-28.5 -39.5l-34 22q10 16 21.5 38.5t11.5 39.5q0 9 -3.5 16t-7.5 13.5t-7.5 15t-3.5 20.5q0 23 16 37t36 14q25 0 39 -16.5t14 -42.5z" />
    <glyph glyph-name="lcommaaccent" unicode="&#x13c;" horiz-adv-x="237" 
d="M81 0v667h97v-667h-97zM175 -95q0 -17 -7.5 -36.5t-19.5 -40t-26.5 -41t-28.5 -39.5l-34 22q10 16 21.5 38.5t11.5 39.5q0 9 -3.5 16t-7.5 13.5t-7.5 15t-3.5 20.5q0 23 16 37t36 14q25 0 39 -16.5t14 -42.5z" />
    <glyph glyph-name="Lcaron" unicode="&#x13d;" horiz-adv-x="433" 
d="M81 0v667h97v-582h233l12 -85h-342zM369 620q0 -17 -7.5 -36.5t-19.5 -40t-26.5 -41t-28.5 -39.5l-34 22q10 16 21.5 38.5t11.5 39.5q0 9 -3.5 16t-7.5 13.5t-7.5 15t-3.5 20.5q0 23 16 37t36 14q25 0 39 -16.5t14 -42.5z" />
    <glyph glyph-name="lcaron" unicode="&#x13e;" horiz-adv-x="237" 
d="M72 0v729h93v-729h-93zM348 769q0 -17 -7.5 -36.5t-19.5 -40t-26.5 -41t-28.5 -39.5l-34 22q10 16 21.5 38.5t11.5 39.5q0 9 -3.5 16t-7.5 13.5t-7.5 15t-3.5 20.5q0 23 16 37t36 14q25 0 39 -16.5t14 -42.5z" />
    <glyph glyph-name="Lslash" unicode="&#x141;" horiz-adv-x="435" 
d="M83 0v255l-48 -46l-40 49l88 81v328h99v-247l93 88l41 -49l-134 -124v-250h231l12 -85h-342z" />
    <glyph glyph-name="lslash" unicode="&#x142;" horiz-adv-x="255" 
d="M171 388v-388h-93v312l-44 -42l-41 47l85 80v332h93v-256l49 48l42 -47z" />
    <glyph glyph-name="Nacute" unicode="&#x143;" horiz-adv-x="613" 
d="M428 0l-258 518v-518h-89v667h103l259 -521v521h89v-667h-104zM284 718l-40 47l154 159l59 -70z" />
    <glyph glyph-name="nacute" unicode="&#x144;" horiz-adv-x="579" 
d="M418 0v317q0 38 -3 64t-12 42.5t-26 24t-45 7.5q-22 0 -46 -9.5t-47 -23.5t-42.5 -29.5t-31.5 -27.5v-365h-92v397q0 47 -1.5 83.5t-1.5 47.5h86l5 -84q16 14 39.5 30.5t50.5 30.5t57 23.5t60 9.5q72 0 107.5 -40t35.5 -125v-373h-93zM267 604l-40 47l154 159l59 -70z
" />
    <glyph glyph-name="Ncommaaccent" unicode="&#x145;" horiz-adv-x="613" 
d="M428 0l-258 518v-518h-89v667h103l259 -521v521h89v-667h-104zM360 -95q0 -17 -7.5 -36.5t-19.5 -40t-26.5 -41t-28.5 -39.5l-34 22q10 16 21.5 38.5t11.5 39.5q0 9 -3.5 16t-7.5 13.5t-7.5 15t-3.5 20.5q0 23 16 37t36 14q25 0 39 -16.5t14 -42.5z" />
    <glyph glyph-name="ncommaaccent" unicode="&#x146;" horiz-adv-x="579" 
d="M418 0v317q0 38 -3 64t-12 42.5t-26 24t-45 7.5q-22 0 -46 -9.5t-47 -23.5t-42.5 -29.5t-31.5 -27.5v-365h-92v397q0 47 -1.5 83.5t-1.5 47.5h86l5 -84q16 14 39.5 30.5t50.5 30.5t57 23.5t60 9.5q72 0 107.5 -40t35.5 -125v-373h-93zM344 -95q0 -17 -7.5 -36.5
t-19.5 -40t-26.5 -41t-28.5 -39.5l-34 22q10 16 21.5 38.5t11.5 39.5q0 9 -3.5 16t-7.5 13.5t-7.5 15t-3.5 20.5q0 23 16 37t36 14q25 0 39 -16.5t14 -42.5z" />
    <glyph glyph-name="Ncaron" unicode="&#x147;" horiz-adv-x="613" 
d="M428 0l-258 518v-518h-89v667h103l259 -521v521h89v-667h-104zM338 732h-68l-126 131l42 43l119 -94l121 94l42 -43z" />
    <glyph glyph-name="ncaron" unicode="&#x148;" horiz-adv-x="579" 
d="M418 0v317q0 38 -3 64t-12 42.5t-26 24t-45 7.5q-22 0 -46 -9.5t-47 -23.5t-42.5 -29.5t-31.5 -27.5v-365h-92v397q0 47 -1.5 83.5t-1.5 47.5h86l5 -84q16 14 39.5 30.5t50.5 30.5t57 23.5t60 9.5q72 0 107.5 -40t35.5 -125v-373h-93zM321 618h-68l-126 131l42 43
l119 -94l121 94l42 -43z" />
    <glyph glyph-name="Omacron" unicode="&#x14c;" horiz-adv-x="618" 
d="M564 334q0 -177 -65 -261.5t-190 -84.5q-126 0 -190.5 84.5t-64.5 261.5q0 176 64.5 260.5t190.5 84.5q125 0 190 -84.5t65 -260.5zM464 334q0 61 -9 110.5t-27.5 84t-48 53t-70.5 18.5t-70.5 -18.5t-48.5 -53t-28 -84t-9 -110.5q0 -62 9 -112t28 -84.5t48.5 -53
t70.5 -18.5q82 0 118.5 71.5t36.5 196.5zM156 750v69h303v-69h-303z" />
    <glyph glyph-name="omacron" unicode="&#x14d;" horiz-adv-x="540" 
d="M495 264q0 -141 -60 -207.5t-165 -66.5q-106 0 -165.5 66.5t-59.5 207.5q0 140 59.5 207t165.5 67t165.5 -67t59.5 -207zM397 264q0 99 -29 150t-98 51q-70 0 -99 -51t-29 -150q0 -100 29 -151t99 -51q69 0 98 51t29 151zM118 636v69h303v-69h-303z" />
    <glyph glyph-name="Ohungarumlaut" unicode="&#x150;" horiz-adv-x="618" 
d="M564 334q0 -177 -65 -261.5t-190 -84.5q-126 0 -190.5 84.5t-64.5 261.5q0 176 64.5 260.5t190.5 84.5q125 0 190 -84.5t65 -260.5zM464 334q0 61 -9 110.5t-27.5 84t-48 53t-70.5 18.5t-70.5 -18.5t-48.5 -53t-28 -84t-9 -110.5q0 -62 9 -112t28 -84.5t48.5 -53
t70.5 -18.5q82 0 118.5 71.5t36.5 196.5zM222 719l-49 34l101 172l74 -52zM392 719l-48 34l101 172l74 -52z" />
    <glyph glyph-name="ohungarumlaut" unicode="&#x151;" horiz-adv-x="540" 
d="M495 264q0 -141 -60 -207.5t-165 -66.5q-106 0 -165.5 66.5t-59.5 207.5q0 140 59.5 207t165.5 67t165.5 -67t59.5 -207zM397 264q0 99 -29 150t-98 51q-70 0 -99 -51t-29 -150q0 -100 29 -151t99 -51q69 0 98 51t29 151zM183 605l-49 34l101 172l74 -52zM353 605l-48 34
l101 172l74 -52z" />
    <glyph glyph-name="OE" unicode="&#x152;" horiz-adv-x="823" 
d="M464 0q-24 0 -66.5 -5.5t-89.5 -5.5q-126 0 -190.5 84t-64.5 261q0 176 64.5 260t190.5 84q47 0 89 -5.5t67 -5.5h325l-13 -83h-266v-201h213v-77h-213v-224h270l13 -82h-329zM414 587q-11 2 -36 6t-70 4q-41 0 -70.5 -18t-48.5 -52t-28 -83t-9 -110q0 -62 9 -111.5
t28 -83.5t48.5 -52t70.5 -18q45 0 70 3.5t36 5.5v509z" />
    <glyph glyph-name="oe" unicode="&#x153;" horiz-adv-x="876" 
d="M493 242q0 -50 11.5 -83t31.5 -53.5t46.5 -29t57.5 -8.5q38 0 75.5 8.5t67.5 23.5l24 -69q-25 -14 -73 -27.5t-112 -13.5q-53 0 -102 23.5t-78 83.5q-24 -52 -70 -79.5t-105 -27.5q-63 0 -105.5 22t-68.5 59.5t-37 87t-11 105.5q0 140 59.5 207t162.5 67q64 0 110 -29.5
t69 -86.5q27 60 74 88t103 28q97 0 153 -69.5t56 -200.5v-13t-1 -13h-338zM734 305q-2 45 -12 75t-26 49t-36.5 27t-43.5 8t-44.5 -9.5t-38.5 -29t-28 -49.5t-13 -71h242zM397 264q0 99 -29 150t-98 51q-70 0 -99 -51t-29 -150q0 -100 29 -151t99 -51q69 0 98 51t29 151z
" />
    <glyph glyph-name="Racute" unicode="&#x154;" horiz-adv-x="563" 
d="M425 0l-200 288h-47v-288h-97v667h174q58 0 105 -8t79.5 -29t50 -58t17.5 -95q0 -44 -14.5 -77t-39.5 -55.5t-58.5 -35t-71.5 -15.5l223 -294h-121zM404 477q0 32 -7.5 54t-25 35t-46 18.5t-71.5 5.5h-76v-230h79q80 0 113.5 26.5t33.5 90.5zM259 718l-40 47l154 159
l59 -70z" />
    <glyph glyph-name="racute" unicode="&#x155;" horiz-adv-x="349" 
d="M332 442q-18 5 -38 5q-30 0 -54 -15t-41 -41.5t-26 -62.5t-9 -79v-249h-93v382q0 49 -1.5 91t-1.5 55h86l7 -95q26 55 69 80t88 25q6 0 15 -1t18 -3zM174 604l-40 47l154 159l59 -70z" />
    <glyph glyph-name="Rcommaaccent" unicode="&#x156;" horiz-adv-x="563" 
d="M425 0l-200 288h-47v-288h-97v667h174q58 0 105 -8t79.5 -29t50 -58t17.5 -95q0 -44 -14.5 -77t-39.5 -55.5t-58.5 -35t-71.5 -15.5l223 -294h-121zM404 477q0 32 -7.5 54t-25 35t-46 18.5t-71.5 5.5h-76v-230h79q80 0 113.5 26.5t33.5 90.5zM339 -95q0 -17 -7.5 -36.5
t-19.5 -40t-26.5 -41t-28.5 -39.5l-34 22q10 16 21.5 38.5t11.5 39.5q0 9 -3.5 16t-7.5 13.5t-7.5 15t-3.5 20.5q0 23 16 37t36 14q25 0 39 -16.5t14 -42.5z" />
    <glyph glyph-name="rcommaaccent" unicode="&#x157;" horiz-adv-x="349" 
d="M332 442q-18 5 -38 5q-30 0 -54 -15t-41 -41.5t-26 -62.5t-9 -79v-249h-93v382q0 49 -1.5 91t-1.5 55h86l7 -95q26 55 69 80t88 25q6 0 15 -1t18 -3zM194 -95q0 -17 -7.5 -36.5t-19.5 -40t-26.5 -41t-28.5 -39.5l-34 22q10 16 21.5 38.5t11.5 39.5q0 9 -3.5 16t-7.5 13.5
t-7.5 15t-3.5 20.5q0 23 16 37t36 14q25 0 39 -16.5t14 -42.5z" />
    <glyph glyph-name="Rcaron" unicode="&#x158;" horiz-adv-x="563" 
d="M425 0l-200 288h-47v-288h-97v667h174q58 0 105 -8t79.5 -29t50 -58t17.5 -95q0 -44 -14.5 -77t-39.5 -55.5t-58.5 -35t-71.5 -15.5l223 -294h-121zM404 477q0 32 -7.5 54t-25 35t-46 18.5t-71.5 5.5h-76v-230h79q80 0 113.5 26.5t33.5 90.5zM313 732h-68l-126 131l42 43
l119 -94l121 94l42 -43z" />
    <glyph glyph-name="rcaron" unicode="&#x159;" horiz-adv-x="349" 
d="M332 442q-18 5 -38 5q-30 0 -54 -15t-41 -41.5t-26 -62.5t-9 -79v-249h-93v382q0 49 -1.5 91t-1.5 55h86l7 -95q26 55 69 80t88 25q6 0 15 -1t18 -3zM226 618h-68l-126 131l42 43l119 -94l121 94l42 -43z" />
    <glyph glyph-name="Sacute" unicode="&#x15a;" horiz-adv-x="478" 
d="M446 178q0 -50 -16.5 -86t-46.5 -59t-72 -34t-93 -11q-57 0 -106 9t-83 23l17 75q29 -11 70.5 -21t88.5 -10q24 0 48 5t43.5 16.5t32 30.5t12.5 48q0 30 -22.5 54t-56.5 46.5t-73 45.5t-73 51t-56.5 63t-22.5 82q0 46 17 79t46 54t66.5 30.5t79.5 9.5q48 0 93 -7t79 -18
l-16 -76q-25 8 -63.5 16t-83.5 8q-20 0 -40.5 -5t-37.5 -16t-27.5 -27.5t-10.5 -39.5q0 -32 22.5 -57.5t57 -49t74 -46t74 -49t57 -59t22.5 -75.5zM217 718l-40 47l154 159l59 -70z" />
    <glyph glyph-name="sacute" unicode="&#x15b;" horiz-adv-x="412" 
d="M380 140q0 -77 -51 -113.5t-137 -36.5q-50 0 -91 8t-70 21l14 69q23 -9 59 -17t69 -8q17 0 36 1.5t35 7.5t26.5 18.5t10.5 34.5q0 27 -18 47.5t-45 39t-58 36.5t-58 40t-45 49t-18 64q0 69 45.5 103t126.5 34q42 0 79 -6t66 -15l-13 -74q-20 7 -52.5 13.5t-67.5 6.5
q-17 0 -33.5 -2.5t-29 -9t-20.5 -17.5t-8 -27q0 -24 18.5 -43.5t46 -37.5t59.5 -36.5t59.5 -40t46 -48t18.5 -61.5zM185 604l-40 47l154 159l59 -70z" />
    <glyph glyph-name="Scedilla" unicode="&#x15e;" horiz-adv-x="478" 
d="M446 178q0 -93 -53.5 -138t-143.5 -51l-11 -35q2 1 6.5 1h8.5q37 0 64 -19t27 -67q0 -27 -11 -45.5t-29 -30.5t-40.5 -17.5t-46.5 -5.5q-19 0 -40.5 3.5t-36.5 9.5l16 51q11 -3 25.5 -6.5t29.5 -3.5q22 0 42 10.5t20 36.5q0 12 -5.5 19t-14.5 10.5t-20 4.5t-22 1
t-22.5 -1t-18.5 -3l26 86q-51 2 -93.5 10.5t-73.5 21.5l17 75q29 -11 70.5 -21t88.5 -10q24 0 48 5t43.5 16.5t32 30.5t12.5 48q0 30 -22.5 54t-56.5 46.5t-73 45.5t-73 51t-56.5 63t-22.5 82q0 46 17 79t46 54t66.5 30.5t79.5 9.5q48 0 93 -7t79 -18l-16 -76
q-25 8 -63.5 16t-83.5 8q-20 0 -40.5 -5t-37.5 -16t-27.5 -27.5t-10.5 -39.5q0 -32 22.5 -57.5t57 -49t74 -46t74 -49t57 -59t22.5 -75.5z" />
    <glyph glyph-name="Scedilla" unicode="&#xf6c1;" horiz-adv-x="478" 
d="M446 178q0 -93 -53.5 -138t-143.5 -51l-11 -35q2 1 6.5 1h8.5q37 0 64 -19t27 -67q0 -27 -11 -45.5t-29 -30.5t-40.5 -17.5t-46.5 -5.5q-19 0 -40.5 3.5t-36.5 9.5l16 51q11 -3 25.5 -6.5t29.5 -3.5q22 0 42 10.5t20 36.5q0 12 -5.5 19t-14.5 10.5t-20 4.5t-22 1
t-22.5 -1t-18.5 -3l26 86q-51 2 -93.5 10.5t-73.5 21.5l17 75q29 -11 70.5 -21t88.5 -10q24 0 48 5t43.5 16.5t32 30.5t12.5 48q0 30 -22.5 54t-56.5 46.5t-73 45.5t-73 51t-56.5 63t-22.5 82q0 46 17 79t46 54t66.5 30.5t79.5 9.5q48 0 93 -7t79 -18l-16 -76
q-25 8 -63.5 16t-83.5 8q-20 0 -40.5 -5t-37.5 -16t-27.5 -27.5t-10.5 -39.5q0 -32 22.5 -57.5t57 -49t74 -46t74 -49t57 -59t22.5 -75.5z" />
    <glyph glyph-name="scedilla" unicode="&#x15f;" horiz-adv-x="412" 
d="M380 140q0 -72 -44 -108t-119 -41l-11 -37q2 1 6.5 1h8.5q37 0 64 -19t27 -67q0 -27 -11 -45.5t-29 -30.5t-40.5 -17.5t-46.5 -5.5q-19 0 -40.5 3.5t-36.5 9.5l16 51q11 -3 25.5 -6.5t29.5 -3.5q22 0 42 10.5t20 36.5q0 12 -5.5 19t-14.5 10.5t-20 4.5t-22 1t-22.5 -1
t-18.5 -3l27 89q-81 4 -134 28l14 69q23 -9 59 -17t69 -8q17 0 36 1.5t35 7.5t26.5 18.5t10.5 34.5q0 27 -18 47.5t-45 39t-58 36.5t-58 40t-45 49t-18 64q0 69 45.5 103t126.5 34q42 0 79 -6t66 -15l-13 -74q-20 7 -52.5 13.5t-67.5 6.5q-17 0 -33.5 -2.5t-29 -9
t-20.5 -17.5t-8 -27q0 -24 18.5 -43.5t46 -37.5t59.5 -36.5t59.5 -40t46 -48t18.5 -61.5z" />
    <glyph glyph-name="scedilla" unicode="&#xf6c2;" horiz-adv-x="412" 
d="M380 140q0 -72 -44 -108t-119 -41l-11 -37q2 1 6.5 1h8.5q37 0 64 -19t27 -67q0 -27 -11 -45.5t-29 -30.5t-40.5 -17.5t-46.5 -5.5q-19 0 -40.5 3.5t-36.5 9.5l16 51q11 -3 25.5 -6.5t29.5 -3.5q22 0 42 10.5t20 36.5q0 12 -5.5 19t-14.5 10.5t-20 4.5t-22 1t-22.5 -1
t-18.5 -3l27 89q-81 4 -134 28l14 69q23 -9 59 -17t69 -8q17 0 36 1.5t35 7.5t26.5 18.5t10.5 34.5q0 27 -18 47.5t-45 39t-58 36.5t-58 40t-45 49t-18 64q0 69 45.5 103t126.5 34q42 0 79 -6t66 -15l-13 -74q-20 7 -52.5 13.5t-67.5 6.5q-17 0 -33.5 -2.5t-29 -9
t-20.5 -17.5t-8 -27q0 -24 18.5 -43.5t46 -37.5t59.5 -36.5t59.5 -40t46 -48t18.5 -61.5z" />
    <glyph glyph-name="Scaron" unicode="&#x160;" horiz-adv-x="478" 
d="M446 178q0 -50 -16.5 -86t-46.5 -59t-72 -34t-93 -11q-57 0 -106 9t-83 23l17 75q29 -11 70.5 -21t88.5 -10q24 0 48 5t43.5 16.5t32 30.5t12.5 48q0 30 -22.5 54t-56.5 46.5t-73 45.5t-73 51t-56.5 63t-22.5 82q0 46 17 79t46 54t66.5 30.5t79.5 9.5q48 0 93 -7t79 -18
l-16 -76q-25 8 -63.5 16t-83.5 8q-20 0 -40.5 -5t-37.5 -16t-27.5 -27.5t-10.5 -39.5q0 -32 22.5 -57.5t57 -49t74 -46t74 -49t57 -59t22.5 -75.5zM270 732h-68l-126 131l42 43l119 -94l121 94l42 -43z" />
    <glyph glyph-name="scaron" unicode="&#x161;" horiz-adv-x="412" 
d="M380 140q0 -77 -51 -113.5t-137 -36.5q-50 0 -91 8t-70 21l14 69q23 -9 59 -17t69 -8q17 0 36 1.5t35 7.5t26.5 18.5t10.5 34.5q0 27 -18 47.5t-45 39t-58 36.5t-58 40t-45 49t-18 64q0 69 45.5 103t126.5 34q42 0 79 -6t66 -15l-13 -74q-20 7 -52.5 13.5t-67.5 6.5
q-17 0 -33.5 -2.5t-29 -9t-20.5 -17.5t-8 -27q0 -24 18.5 -43.5t46 -37.5t59.5 -36.5t59.5 -40t46 -48t18.5 -61.5zM239 618h-68l-126 131l42 43l119 -94l121 94l42 -43z" />
    <glyph glyph-name="Tcommaaccent" unicode="&#x162;" horiz-adv-x="450" 
d="M427 585h-155v-585h-97v585h-155l-12 82h431zM282 -95q0 -17 -7.5 -36.5t-19.5 -40t-26.5 -41t-28.5 -39.5l-34 22q10 16 21.5 38.5t11.5 39.5q0 9 -3.5 16t-7.5 13.5t-7.5 15t-3.5 20.5q0 23 16 37t36 14q25 0 39 -16.5t14 -42.5z" />
    <glyph glyph-name="Tcommaaccent" unicode="&#x21a;" horiz-adv-x="450" 
d="M427 585h-155v-585h-97v585h-155l-12 82h431zM282 -95q0 -17 -7.5 -36.5t-19.5 -40t-26.5 -41t-28.5 -39.5l-34 22q10 16 21.5 38.5t11.5 39.5q0 9 -3.5 16t-7.5 13.5t-7.5 15t-3.5 20.5q0 23 16 37t36 14q25 0 39 -16.5t14 -42.5z" />
    <glyph glyph-name="tcommaaccent" unicode="&#x163;" horiz-adv-x="313" 
d="M287 8q-18 -6 -41 -12t-53 -6q-40 0 -62 14t-32 37t-11.5 52.5t-1.5 60.5v302h-72l-7 72h81v125h92v-125h98l-12 -72h-86v-308q0 -39 6 -60t32 -21q17 0 29 3t21 6zM228 -95q0 -17 -7.5 -36.5t-19.5 -40t-26.5 -41t-28.5 -39.5l-34 22q10 16 21.5 38.5t11.5 39.5
q0 9 -3.5 16t-7.5 13.5t-7.5 15t-3.5 20.5q0 23 16 37t36 14q25 0 39 -16.5t14 -42.5z" />
    <glyph glyph-name="tcommaaccent" unicode="&#x21b;" horiz-adv-x="313" 
d="M287 8q-18 -6 -41 -12t-53 -6q-40 0 -62 14t-32 37t-11.5 52.5t-1.5 60.5v302h-72l-7 72h81v125h92v-125h98l-12 -72h-86v-308q0 -39 6 -60t32 -21q17 0 29 3t21 6zM228 -95q0 -17 -7.5 -36.5t-19.5 -40t-26.5 -41t-28.5 -39.5l-34 22q10 16 21.5 38.5t11.5 39.5
q0 9 -3.5 16t-7.5 13.5t-7.5 15t-3.5 20.5q0 23 16 37t36 14q25 0 39 -16.5t14 -42.5z" />
    <glyph glyph-name="Tcaron" unicode="&#x164;" horiz-adv-x="450" 
d="M427 585h-155v-585h-97v585h-155l-12 82h431zM258 732h-68l-126 131l42 43l119 -94l121 94l42 -43z" />
    <glyph glyph-name="tcaron" unicode="&#x165;" horiz-adv-x="313" 
d="M287 8q-18 -6 -41 -12t-53 -6q-40 0 -62 14t-32 37t-11.5 52.5t-1.5 60.5v302h-72l-7 72h81v125h92v-125h98l-12 -72h-86v-308q0 -39 6 -60t32 -21q17 0 29 3t21 6zM356 769q0 -17 -7.5 -36.5t-19.5 -40t-26.5 -41t-28.5 -39.5l-34 22q10 16 21.5 38.5t11.5 39.5
q0 9 -3.5 16t-7.5 13.5t-7.5 15t-3.5 20.5q0 23 16 37t36 14q25 0 39 -16.5t14 -42.5z" />
    <glyph glyph-name="Umacron" unicode="&#x16a;" horiz-adv-x="601" 
d="M527 285q0 -77 -9.5 -133t-35 -92.5t-69.5 -54t-113 -17.5t-112.5 17.5t-69 54t-35 92.5t-9.5 133v382h97v-392q0 -51 4.5 -90.5t18 -66.5t39.5 -40.5t68 -13.5t67.5 13.5t39 40.5t18 66.5t4.5 90.5v392h97v-382zM148 750v69h303v-69h-303z" />
    <glyph glyph-name="umacron" unicode="&#x16b;" horiz-adv-x="576" 
d="M425 0l-9 83q-16 -15 -38 -31t-48 -30t-55 -23t-60 -9q-72 0 -110 39.5t-38 124.5v374h94v-315q0 -36 3 -62t12 -42.5t25 -24.5t42 -8q50 0 93 25t77 59v368h93v-528h-81zM136 636v69h303v-69h-303z" />
    <glyph glyph-name="Uring" unicode="&#x16e;" horiz-adv-x="601" 
d="M527 285q0 -77 -9.5 -133t-35 -92.5t-69.5 -54t-113 -17.5t-112.5 17.5t-69 54t-35 92.5t-9.5 133v382h97v-392q0 -51 4.5 -90.5t18 -66.5t39.5 -40.5t68 -13.5t67.5 13.5t39 40.5t18 66.5t4.5 90.5v392h97v-382zM300 720q-50 0 -80.5 32.5t-30.5 78.5q0 47 30.5 79.5
t80.5 32.5t80.5 -32.5t30.5 -79.5q0 -46 -30.5 -78.5t-80.5 -32.5zM300 890q-29 0 -43 -17.5t-14 -41.5q0 -23 14 -40.5t43 -17.5q28 0 42 17t14 41t-14 41.5t-42 17.5z" />
    <glyph glyph-name="uring" unicode="&#x16f;" horiz-adv-x="576" 
d="M425 0l-9 83q-16 -15 -38 -31t-48 -30t-55 -23t-60 -9q-72 0 -110 39.5t-38 124.5v374h94v-315q0 -36 3 -62t12 -42.5t25 -24.5t42 -8q50 0 93 25t77 59v368h93v-528h-81zM288 606q-50 0 -80.5 32.5t-30.5 78.5q0 47 30.5 79.5t80.5 32.5t80.5 -32.5t30.5 -79.5
q0 -46 -30.5 -78.5t-80.5 -32.5zM288 776q-29 0 -43 -17.5t-14 -41.5q0 -23 14 -40.5t43 -17.5q28 0 42 17t14 41t-14 41.5t-42 17.5z" />
    <glyph glyph-name="Uhungarumlaut" unicode="&#x170;" horiz-adv-x="601" 
d="M527 285q0 -77 -9.5 -133t-35 -92.5t-69.5 -54t-113 -17.5t-112.5 17.5t-69 54t-35 92.5t-9.5 133v382h97v-392q0 -51 4.5 -90.5t18 -66.5t39.5 -40.5t68 -13.5t67.5 13.5t39 40.5t18 66.5t4.5 90.5v392h97v-382zM213 719l-49 34l101 172l74 -52zM383 719l-48 34l101 172
l74 -52z" />
    <glyph glyph-name="uhungarumlaut" unicode="&#x171;" horiz-adv-x="576" 
d="M425 0l-9 83q-16 -15 -38 -31t-48 -30t-55 -23t-60 -9q-72 0 -110 39.5t-38 124.5v374h94v-315q0 -36 3 -62t12 -42.5t25 -24.5t42 -8q50 0 93 25t77 59v368h93v-528h-81zM201 605l-49 34l101 172l74 -52zM371 605l-48 34l101 172l74 -52z" />
    <glyph glyph-name="Uogonek" unicode="&#x172;" horiz-adv-x="601" 
d="M527 285q0 -90 -13.5 -151t-49.5 -96q-18 -18 -41 -35.5t-43.5 -36.5t-34 -41t-13.5 -49q0 -19 12.5 -33t34.5 -14q25 0 44.5 7t30.5 15l21 -49q-3 -2 -12 -7t-22.5 -10.5t-33 -10t-43.5 -4.5q-48 0 -76.5 24.5t-28.5 67.5q0 37 27 72.5t70 67.5q-16 -8 -30.5 -11
t-25.5 -3q-69 0 -112.5 17.5t-69 54t-35 92.5t-9.5 133v382h97v-392q0 -51 4.5 -90.5t18 -66.5t39.5 -40.5t68 -13.5t67.5 13.5t39 40.5t18 66.5t4.5 90.5v392h97v-382z" />
    <glyph glyph-name="uogonek" unicode="&#x173;" horiz-adv-x="576" 
d="M548 -198q-3 -2 -12 -7t-22.5 -10.5t-33 -10t-43.5 -4.5q-48 0 -76.5 24.5t-28.5 67.5q0 21 8.5 40.5t21.5 37t29.5 33t33.5 27.5l-9 83q-16 -15 -38 -31t-48 -30t-55 -23t-60 -9q-72 0 -110 39.5t-38 124.5v374h94v-315q0 -36 3 -62t12 -42.5t25 -24.5t42 -8q50 0 93 25
t77 59v368h93v-528q-6 0 -22.5 -9.5t-34 -26.5t-31 -39.5t-13.5 -48.5q0 -19 12.5 -33t34.5 -14q25 0 44.5 7t30.5 15z" />
    <glyph glyph-name="Ydieresis" unicode="&#x178;" horiz-adv-x="539" 
d="M318 278v-278h-97v278l-221 389h108l164 -303l163 303h104zM441 792q0 -26 -17 -42.5t-41 -16.5t-41 16.5t-17 42.5q0 24 17 41t41 17t41 -17t17 -41zM217 792q0 -26 -16.5 -42.5t-40.5 -16.5t-41 16.5t-17 42.5q0 24 17 41t41 17t40.5 -17t16.5 -41z" />
    <glyph glyph-name="Zacute" unicode="&#x179;" horiz-adv-x="491" 
d="M35 0v75l308 510h-296v82h400v-76l-307 -510h316v-81h-421zM223 718l-40 47l154 159l59 -70z" />
    <glyph glyph-name="zacute" unicode="&#x17a;" horiz-adv-x="424" 
d="M32 0v68l251 382h-241v78h344v-69l-251 -382h257v-77h-360zM191 604l-40 47l154 159l59 -70z" />
    <glyph glyph-name="Zdotaccent" unicode="&#x17b;" horiz-adv-x="491" 
d="M35 0v75l308 510h-296v82h400v-76l-307 -510h316v-81h-421zM306 793q0 -27 -17.5 -45t-43.5 -18t-44 18t-18 45q0 26 18 44.5t44 18.5t43.5 -18.5t17.5 -44.5z" />
    <glyph glyph-name="zdotaccent" unicode="&#x17c;" horiz-adv-x="424" 
d="M32 0v68l251 382h-241v78h344v-69l-251 -382h257v-77h-360zM274 679q0 -27 -17.5 -45t-43.5 -18t-44 18t-18 45q0 26 18 44.5t44 18.5t43.5 -18.5t17.5 -44.5z" />
    <glyph glyph-name="florin" unicode="&#x192;" 
d="M495 660q-10 2 -24.5 5t-28.5 3q-33 0 -46 -19t-20 -58l-11 -63h102l-13 -70h-99l-77 -484q-6 -41 -15 -76t-27 -60.5t-47.5 -40t-77.5 -14.5q-25 0 -42 4t-29 7l19 70q10 -2 24.5 -5t28.5 -3q32 0 45.5 19.5t19.5 58.5l84 524h-67l-6 70h83l14 83q11 63 46.5 97t99.5 34
q29 0 49 -3.5t34 -7.5z" />
    <glyph glyph-name="Scommaaccent" unicode="&#x218;" horiz-adv-x="478" 
d="M446 178q0 -50 -16.5 -86t-46.5 -59t-72 -34t-93 -11q-57 0 -106 9t-83 23l17 75q29 -11 70.5 -21t88.5 -10q24 0 48 5t43.5 16.5t32 30.5t12.5 48q0 30 -22.5 54t-56.5 46.5t-73 45.5t-73 51t-56.5 63t-22.5 82q0 46 17 79t46 54t66.5 30.5t79.5 9.5q48 0 93 -7t79 -18
l-16 -76q-25 8 -63.5 16t-83.5 8q-20 0 -40.5 -5t-37.5 -16t-27.5 -27.5t-10.5 -39.5q0 -32 22.5 -57.5t57 -49t74 -46t74 -49t57 -59t22.5 -75.5zM295 -95q0 -17 -7.5 -36.5t-19.5 -40t-26.5 -41t-28.5 -39.5l-34 22q10 16 21.5 38.5t11.5 39.5q0 9 -3.5 16t-7.5 13.5
t-7.5 15t-3.5 20.5q0 23 16 37t36 14q25 0 39 -16.5t14 -42.5z" />
    <glyph glyph-name="scommaaccent" unicode="&#x219;" horiz-adv-x="412" 
d="M380 140q0 -77 -51 -113.5t-137 -36.5q-50 0 -91 8t-70 21l14 69q23 -9 59 -17t69 -8q17 0 36 1.5t35 7.5t26.5 18.5t10.5 34.5q0 27 -18 47.5t-45 39t-58 36.5t-58 40t-45 49t-18 64q0 69 45.5 103t126.5 34q42 0 79 -6t66 -15l-13 -74q-20 7 -52.5 13.5t-67.5 6.5
q-17 0 -33.5 -2.5t-29 -9t-20.5 -17.5t-8 -27q0 -24 18.5 -43.5t46 -37.5t59.5 -36.5t59.5 -40t46 -48t18.5 -61.5zM263 -95q0 -17 -7.5 -36.5t-19.5 -40t-26.5 -41t-28.5 -39.5l-34 22q10 16 21.5 38.5t11.5 39.5q0 9 -3.5 16t-7.5 13.5t-7.5 15t-3.5 20.5q0 23 16 37
t36 14q25 0 39 -16.5t14 -42.5z" />
    <glyph glyph-name="circumflex" unicode="&#x2c6;" horiz-adv-x="464" 
d="M351 609l-119 95l-121 -95l-41 43l130 131h68l126 -131z" />
    <glyph glyph-name="caron" unicode="&#x2c7;" horiz-adv-x="464" 
d="M264 618h-68l-126 131l42 43l119 -94l121 94l42 -43z" />
    <glyph glyph-name="breve" unicode="&#x2d8;" horiz-adv-x="464" 
d="M231 615q-75 0 -112 36t-37 105h62q0 -14 4.5 -27t14.5 -23t26.5 -16t41.5 -6q50 0 68.5 21.5t19.5 50.5h62q-2 -68 -38.5 -104.5t-111.5 -36.5z" />
    <glyph glyph-name="dotaccent" unicode="&#x2d9;" horiz-adv-x="464" 
d="M293 679q0 -27 -17.5 -45t-43.5 -18t-44 18t-18 45q0 26 18 44.5t44 18.5t43.5 -18.5t17.5 -44.5z" />
    <glyph glyph-name="ring" unicode="&#x2da;" horiz-adv-x="464" 
d="M232 606q-50 0 -80.5 32.5t-30.5 78.5q0 47 30.5 79.5t80.5 32.5t80.5 -32.5t30.5 -79.5q0 -46 -30.5 -78.5t-80.5 -32.5zM232 776q-29 0 -43 -17.5t-14 -41.5q0 -23 14 -40.5t43 -17.5q28 0 42 17t14 41t-14 41.5t-42 17.5z" />
    <glyph glyph-name="ogonek" unicode="&#x2db;" horiz-adv-x="420" 
d="M307 -198q-3 -2 -12 -7t-22.5 -10.5t-33 -10t-43.5 -4.5q-48 0 -76.5 24.5t-28.5 67.5q0 28 15 54t36 47.5t44.5 38t40.5 25.5h66q-9 -7 -30 -20.5t-43 -32.5t-39 -44t-17 -54q0 -19 12.5 -33t34.5 -14q25 0 44.5 7t30.5 15z" />
    <glyph glyph-name="tilde" unicode="&#x2dc;" horiz-adv-x="464" 
d="M299 620q-24 0 -41.5 7.5t-39.5 18.5q-16 8 -29 15t-30 7q-22 0 -41 -15t-33 -31l-45 31q13 17 25.5 33t27.5 28.5t32 20t39 7.5q24 0 42 -7.5t37 -18.5q16 -9 30 -15.5t31 -6.5q21 0 40.5 14.5t33.5 30.5l45 -31q-13 -17 -26 -32.5t-27.5 -28t-32 -20t-38.5 -7.5z" />
    <glyph glyph-name="hungarumlaut" unicode="&#x2dd;" horiz-adv-x="464" 
d="M147 605l-49 34l101 172l74 -52zM317 605l-48 34l101 172l74 -52z" />
    <glyph glyph-name="tonos" unicode="&#x384;" horiz-adv-x="464" 
d="M255 611l-58 2l-4 192l91 -5z" />
    <glyph glyph-name="dieresistonos" unicode="&#x385;" horiz-adv-x="464" 
d="M428 674q0 -23 -15.5 -38t-38.5 -15t-38 15t-15 38t15 38.5t38 15.5t38.5 -15.5t15.5 -38.5zM143 674q0 -23 -15.5 -38t-37.5 -15q-23 0 -38.5 15t-15.5 38t15.5 38.5t38.5 15.5q22 0 37.5 -15.5t15.5 -38.5zM256 624h-50l-16 185h86z" />
    <glyph glyph-name="Alphatonos" unicode="&#x386;" horiz-adv-x="569" 
d="M448 0l-42 131h-247l-43 -131h-100l215 667h108l214 -667h-105zM283 547l-104 -340h207zM86 475l-58 2l-4 192l91 -5z" />
    <glyph glyph-name="Epsilontonos" unicode="&#x388;" horiz-adv-x="596" 
d="M183 0v667h376l-13 -83h-266v-201h213v-77h-213v-224h270l13 -82h-380zM76 475l-58 2l-4 192l91 -5z" />
    <glyph glyph-name="Etatonos" unicode="&#x389;" horiz-adv-x="745" 
d="M568 0v303h-286v-303h-97v667h97v-283h286v283h96v-667h-96zM76 475l-58 2l-4 192l91 -5z" />
    <glyph glyph-name="Iotatonos" unicode="&#x38a;" horiz-adv-x="363" 
d="M185 0v667h97v-667h-97zM76 475l-58 2l-4 192l91 -5z" />
    <glyph glyph-name="Omicrontonos" unicode="&#x38c;" horiz-adv-x="704" 
d="M650 334q0 -177 -65 -261.5t-190 -84.5q-126 0 -190.5 84.5t-64.5 261.5q0 176 64.5 260.5t190.5 84.5q125 0 190 -84.5t65 -260.5zM550 334q0 61 -9 110.5t-27.5 84t-48 53t-70.5 18.5t-70.5 -18.5t-48.5 -53t-28 -84t-9 -110.5q0 -62 9 -112t28 -84.5t48.5 -53
t70.5 -18.5q82 0 118.5 71.5t36.5 196.5zM76 475l-58 2l-4 192l91 -5z" />
    <glyph glyph-name="Upsilontonos" unicode="&#x38e;" horiz-adv-x="690" 
d="M469 278v-278h-97v278l-221 389h108l164 -303l163 303h104zM76 475l-58 2l-4 192l91 -5z" />
    <glyph glyph-name="Omegatonos" unicode="&#x38f;" horiz-adv-x="722" 
d="M565 374q0 31 -6 70.5t-23.5 74t-49 58t-82.5 23.5t-82.5 -23t-49.5 -57.5t-24 -73.5t-6 -70q0 -51 10.5 -96.5t28.5 -83t42 -67.5t50 -50v-79h-229v81h134q-26 21 -50.5 51t-43 68t-30 82.5t-11.5 93.5q0 51 11.5 104.5t41 98t80 72.5t128.5 28t128.5 -28t80 -72
t41 -97.5t11.5 -103.5q0 -49 -12 -93.5t-31.5 -83t-44.5 -69t-51 -51.5h138v-81h-229v79q26 20 49.5 50t41.5 67.5t28.5 82.5t10.5 95zM76 475l-58 2l-4 192l91 -5z" />
    <glyph glyph-name="iotadieresistonos" unicode="&#x390;" horiz-adv-x="273" 
d="M73 401q0 22 -0.5 44t-1.5 41q-1 21 -1 42h92q1 -25 2 -51q1 -23 1.5 -49.5t0.5 -51.5v-235q0 -44 8.5 -59t25.5 -15q15 0 26.5 2.5t18.5 4.5l19 -67q-16 -5 -38 -11t-52 -6q-32 0 -51.5 8.5t-30.5 25.5t-15 42.5t-4 60.5v274v0zM321 674q0 -23 -15.5 -38t-38.5 -15
t-38 15t-15 38t15 38.5t38 15.5t38.5 -15.5t15.5 -38.5zM36 674q0 -23 -15.5 -38t-37.5 -15q-23 0 -38.5 15t-15.5 38t15.5 38.5t38.5 15.5q22 0 37.5 -15.5t15.5 -38.5zM149 624h-50l-16 185h86z" />
    <glyph glyph-name="Alpha" unicode="&#x391;" horiz-adv-x="569" 
d="M448 0l-42 131h-247l-43 -131h-100l215 667h108l214 -667h-105zM283 547l-104 -340h207z" />
    <glyph glyph-name="Beta" unicode="&#x392;" horiz-adv-x="565" 
d="M522 180q0 -90 -62.5 -135t-209.5 -45h-169v667h160q63 0 111.5 -6t82.5 -23.5t51.5 -50t17.5 -85.5q0 -65 -33.5 -106.5t-96.5 -49.5q32 -3 59 -11.5t47 -27.5t31 -49.5t11 -77.5zM404 486q0 33 -9.5 53.5t-30.5 32.5t-54 16t-81 4h-51v-213h61q44 0 75 5t51 17
t29.5 32.5t9.5 52.5zM422 191q0 31 -10 53t-32.5 36.5t-59.5 21.5t-91 7h-51v-235h53q53 0 89.5 5t59 18.5t32.5 36t10 57.5z" />
    <glyph glyph-name="Gamma" unicode="&#x393;" horiz-adv-x="433" 
d="M423 667l-12 -82h-233v-585h-97v667h342z" />
    <glyph glyph-name="Delta" unicode="&#x394;" horiz-adv-x="569" 
d="M114 0h-98l215 667h108l214 -667h-105h-334zM283 547l-145 -470h288z" />
    <glyph glyph-name="Epsilon" unicode="&#x395;" horiz-adv-x="492" 
d="M81 0v667h376l-13 -83h-266v-201h213v-77h-213v-224h270l13 -82h-380z" />
    <glyph glyph-name="Zeta" unicode="&#x396;" horiz-adv-x="491" 
d="M35 0v75l308 510h-296v82h400v-76l-307 -510h316v-81h-421z" />
    <glyph glyph-name="Eta" unicode="&#x397;" horiz-adv-x="641" 
d="M464 0v303h-286v-303h-97v667h97v-283h286v283h96v-667h-96z" />
    <glyph glyph-name="Theta" unicode="&#x398;" horiz-adv-x="618" 
d="M215 305v76h186v-76h-186zM564 334q0 -177 -65 -261.5t-190 -84.5q-126 0 -190.5 84.5t-64.5 261.5q0 176 64.5 260.5t190.5 84.5q125 0 190 -84.5t65 -260.5zM464 334q0 61 -9 110.5t-27.5 84t-48 53t-70.5 18.5t-70.5 -18.5t-48.5 -53t-28 -84t-9 -110.5q0 -62 9 -112
t28 -84.5t48.5 -53t70.5 -18.5q82 0 118.5 71.5t36.5 196.5z" />
    <glyph glyph-name="Iota" unicode="&#x399;" horiz-adv-x="259" 
d="M81 0v667h97v-667h-97z" />
    <glyph glyph-name="Kappa" unicode="&#x39a;" horiz-adv-x="529" 
d="M407 0l-229 311v-311h-97v667h97v-289l218 289h110l-246 -320l266 -347h-119z" />
    <glyph glyph-name="Lambda" unicode="&#x39b;" horiz-adv-x="569" 
d="M231 667h108l214 -667h-106l-164 547l-167 -547h-100z" />
    <glyph glyph-name="Mu" unicode="&#x39c;" horiz-adv-x="699" 
d="M552 0l-44 482l-124 -351h-77l-124 351l-44 -482h-92l61 667h93l147 -413l149 413h94l61 -667h-100z" />
    <glyph glyph-name="Nu" unicode="&#x39d;" horiz-adv-x="613" 
d="M428 0l-258 518v-518h-89v667h103l259 -521v521h89v-667h-104z" />
    <glyph glyph-name="Xi" unicode="&#x39e;" horiz-adv-x="500" 
d="M31 0l13 85h412l13 -85h-438zM48 582l-13 85h430l-13 -85h-404zM101 303v79h298v-79h-298z" />
    <glyph glyph-name="Omicron" unicode="&#x39f;" horiz-adv-x="618" 
d="M564 334q0 -177 -65 -261.5t-190 -84.5q-126 0 -190.5 84.5t-64.5 261.5q0 176 64.5 260.5t190.5 84.5q125 0 190 -84.5t65 -260.5zM464 334q0 61 -9 110.5t-27.5 84t-48 53t-70.5 18.5t-70.5 -18.5t-48.5 -53t-28 -84t-9 -110.5q0 -62 9 -112t28 -84.5t48.5 -53
t70.5 -18.5q82 0 118.5 71.5t36.5 196.5z" />
    <glyph glyph-name="Pi" unicode="&#x3a0;" horiz-adv-x="626" 
d="M449 0v586h-271v-586h-97v667h464v-667h-96z" />
    <glyph glyph-name="Rho" unicode="&#x3a1;" horiz-adv-x="548" 
d="M512 465q0 -205 -250 -205h-84v-260h-97v667h180q134 0 192.5 -50t58.5 -152zM412 465q0 70 -39.5 97t-114.5 27h-80v-253h80q82 0 118 30t36 99z" />
    <glyph glyph-name="Sigma" unicode="&#x3a3;" horiz-adv-x="491" 
d="M54 0v74l150 268l-147 249v76h399l-13 -82h-282l139 -241l-145 -262h296l14 -82h-411z" />
    <glyph glyph-name="Tau" unicode="&#x3a4;" horiz-adv-x="450" 
d="M427 585h-155v-585h-97v585h-155l-12 82h431z" />
    <glyph glyph-name="Upsilon" unicode="&#x3a5;" horiz-adv-x="539" 
d="M318 278v-278h-97v278l-221 389h108l164 -303l163 303h104z" />
    <glyph glyph-name="Phi" unicode="&#x3a6;" horiz-adv-x="746" 
d="M419 0h-93v56q-138 0 -207 70.5t-69 206.5q0 135 69 207t207 72v55h93v-55q138 0 207.5 -71t69.5 -207q0 -135 -69.5 -206.5t-207.5 -71.5v-56zM150 334q0 -104 44 -152.5t132 -48.5v402q-88 0 -132 -48t-44 -153zM419 133q88 0 133 47.5t45 152.5q0 104 -45 153t-133 49
v-402z" />
    <glyph glyph-name="Chi" unicode="&#x3a7;" horiz-adv-x="563" 
d="M436 0l-155 283l-160 -283h-108l209 347l-190 320h113l136 -255l137 255h110l-186 -320l210 -347h-116z" />
    <glyph glyph-name="Psi" unicode="&#x3a8;" horiz-adv-x="746" 
d="M421 205v-205h-97v205h-23q-52 0 -95.5 16t-75 47.5t-49 78t-17.5 108.5v212h97v-216q0 -39 11 -70t31 -52t46.5 -32t58.5 -11h16v381h97v-381h16q31 0 58.5 11t47 32t31 52t11.5 70v216h97v-212q0 -62 -18 -108.5t-50 -78t-75.5 -47.5t-95.5 -16h-22z" />
    <glyph glyph-name="Omega" unicode="&#x3a9;" horiz-adv-x="634" 
d="M478 374q0 31 -6 70.5t-23.5 74t-49 58t-82.5 23.5t-82.5 -23t-49.5 -57.5t-24 -73.5t-6 -70q0 -51 10.5 -96.5t28.5 -83t42 -67.5t50 -50v-79h-229v81h134q-26 21 -50.5 51t-43 68t-30 82.5t-11.5 93.5q0 51 11.5 104.5t41 98t80 72.5t128.5 28t128.5 -28t80 -72
t41 -97.5t11.5 -103.5q0 -49 -12 -93.5t-31.5 -83t-44.5 -69t-51 -51.5h138v-81h-229v79q26 20 49.5 50t41.5 67.5t28.5 82.5t10.5 95z" />
    <glyph glyph-name="Iotadieresis" unicode="&#x3aa;" horiz-adv-x="259" 
d="M81 0v667h97v-667h-97zM302 792q0 -26 -17 -42.5t-41 -16.5t-41 16.5t-17 42.5q0 24 17 41t41 17t41 -17t17 -41zM78 792q0 -26 -16.5 -42.5t-40.5 -16.5t-41 16.5t-17 42.5q0 24 17 41t41 17t40.5 -17t16.5 -41z" />
    <glyph glyph-name="Upsilondieresis" unicode="&#x3ab;" horiz-adv-x="539" 
d="M318 278v-278h-97v278l-221 389h108l164 -303l163 303h104zM441 792q0 -26 -17 -42.5t-41 -16.5t-41 16.5t-17 42.5q0 24 17 41t41 17t41 -17t17 -41zM217 792q0 -26 -16.5 -42.5t-40.5 -16.5t-41 16.5t-17 42.5q0 24 17 41t41 17t40.5 -17t16.5 -41z" />
    <glyph glyph-name="alphatonos" unicode="&#x3ac;" horiz-adv-x="596" 
d="M495 229q0 -56 2 -89t6 -50.5t11 -23t18 -5.5q12 0 22.5 3t16.5 5l17 -61q-15 -7 -35 -12.5t-49 -5.5q-45 0 -63 25.5t-21 72.5q-24 -45 -68.5 -71.5t-108.5 -26.5q-92 0 -145 70t-53 204q0 66 15 117t43 86t67 53t86 18q32 0 58 -8t47 -21t36.5 -30.5t26.5 -36.5
q0 14 2.5 29t4.5 28q3 15 6 29h86q-3 -19 -8 -51t-9.5 -72.5t-7.5 -85.5t-3 -90zM405 260q0 34 -8.5 70.5t-25.5 65.5t-42.5 48t-59.5 19t-58 -14.5t-39.5 -41t-22.5 -63t-7 -80.5q0 -100 29 -151t98 -51q31 0 56 18.5t43 47.5t27.5 64t9.5 68zM330 611l-58 2l-4 192l91 -5z
" />
    <glyph glyph-name="epsilontonos" unicode="&#x3ad;" horiz-adv-x="446" 
d="M165 274q-107 31 -107 128q0 66 53 101t137 35q62 0 104 -13.5t61 -23.5l-24 -68q-17 9 -51.5 19t-75.5 10q-20 0 -39 -3t-34 -11t-24 -22t-9 -35q0 -24 11.5 -40.5t30 -26t43 -14t50.5 -4.5h48v-68h-51q-28 0 -54 -4.5t-45.5 -14.5t-31.5 -27.5t-12 -42.5
q0 -27 10 -43.5t26.5 -25.5t36.5 -12t40 -3q42 0 79.5 9.5t61.5 20.5l24 -68q-20 -10 -65 -23.5t-118 -13.5q-89 0 -140.5 35.5t-51.5 113.5q0 57 30 89.5t87 45.5zM275 611l-58 2l-4 192l91 -5z" />
    <glyph glyph-name="etatonos" unicode="&#x3ae;" horiz-adv-x="579" 
d="M418 -208v525q0 38 -3 64t-12 42.5t-26 24t-45 7.5q-22 0 -46 -9.5t-47 -23.5t-42.5 -29.5t-31.5 -27.5v-365h-92v397q0 47 -1.5 83.5t-1.5 47.5h86l5 -84q16 14 39.5 30.5t50.5 30.5t57 23.5t60 9.5q72 0 107.5 -40t35.5 -125v-581h-93zM316 611l-58 2l-4 192l91 -5z
" />
    <glyph glyph-name="iotatonos" unicode="&#x3af;" horiz-adv-x="273" 
d="M73 401q0 22 -0.5 44t-1.5 41q-1 21 -1 42h92q1 -25 2 -51q1 -23 1.5 -49.5t0.5 -51.5v-235q0 -44 8.5 -59t25.5 -15q15 0 26.5 2.5t18.5 4.5l19 -67q-16 -5 -38 -11t-52 -6q-32 0 -51.5 8.5t-30.5 25.5t-15 42.5t-4 60.5v274v0zM148 611l-58 2l-4 192l91 -5z" />
    <glyph glyph-name="upsilondieresistonos" unicode="&#x3b0;" horiz-adv-x="564" 
d="M501 227q0 -114 -53.5 -175.5t-165.5 -61.5q-113 0 -166 61.5t-53 175.5v301h93v-299q0 -81 31.5 -124t94.5 -43q64 0 95 43t31 124v299h93v-301v0zM477 674q0 -23 -15.5 -38t-38.5 -15t-38 15t-15 38t15 38.5t38 15.5t38.5 -15.5t15.5 -38.5zM192 674q0 -23 -15.5 -38
t-37.5 -15q-23 0 -38.5 15t-15.5 38t15.5 38.5t38.5 15.5q22 0 37.5 -15.5t15.5 -38.5zM305 624h-50l-16 185h86z" />
    <glyph glyph-name="alpha" unicode="&#x3b1;" horiz-adv-x="596" 
d="M495 229q0 -56 2 -89t6 -50.5t11 -23t18 -5.5q12 0 22.5 3t16.5 5l17 -61q-15 -7 -35 -12.5t-49 -5.5q-45 0 -63 25.5t-21 72.5q-24 -45 -68.5 -71.5t-108.5 -26.5q-92 0 -145 70t-53 204q0 66 15 117t43 86t67 53t86 18q32 0 58 -8t47 -21t36.5 -30.5t26.5 -36.5
q0 14 2.5 29t4.5 28q3 15 6 29h86q-3 -19 -8 -51t-9.5 -72.5t-7.5 -85.5t-3 -90zM405 260q0 34 -8.5 70.5t-25.5 65.5t-42.5 48t-59.5 19t-58 -14.5t-39.5 -41t-22.5 -63t-7 -80.5q0 -100 29 -151t98 -51q31 0 56 18.5t43 47.5t27.5 64t9.5 68z" />
    <glyph glyph-name="beta" unicode="&#x3b2;" horiz-adv-x="563" 
d="M522 225q0 -62 -16 -106t-43 -73t-63 -42.5t-76 -13.5q-22 0 -45 4.5t-44.5 12.5t-40 18.5t-31.5 22.5v-256h-92v721q0 58 15 101t42 71.5t64.5 42.5t82.5 14q38 0 74 -10t63.5 -31t44.5 -54t17 -80q0 -33 -10 -58t-27.5 -43.5t-40.5 -31t-49 -18.5q34 -3 65.5 -16.5
t56 -37.5t39 -58t14.5 -79zM424 223q0 42 -14.5 71t-39 47t-57 26t-67.5 8h-38v70h43q63 0 95.5 31.5t32.5 84.5q0 47 -29 77.5t-75 30.5q-54 0 -82.5 -33t-28.5 -105v-406q30 -26 67.5 -43.5t76.5 -17.5q62 0 89 40t27 119z" />
    <glyph glyph-name="gamma" unicode="&#x3b3;" horiz-adv-x="487" 
d="M288 -7v-201h-93v199l-184 537h99l133 -435l137 435h96z" />
    <glyph glyph-name="delta" unicode="&#x3b4;" horiz-adv-x="542" 
d="M501 246q0 -128 -62.5 -192t-167.5 -64q-49 0 -91 15.5t-73 47t-48.5 78t-17.5 108.5q0 49 14 89t37.5 70t54 49.5t63.5 28.5q-22 15 -41 30t-33.5 32t-22.5 36.5t-8 44.5q0 57 47 90t124 33q48 0 89.5 -8.5t61.5 -15.5l-15 -70q-20 7 -54 15t-76 8q-47 0 -67 -16.5
t-20 -35.5q0 -10 4.5 -19.5t16 -20.5t30.5 -24.5t48 -31.5q38 -24 75 -51t66.5 -60t47.5 -73.5t18 -92.5zM404 241q0 34 -9.5 61t-26 50t-39 42t-47.5 37q-66 -10 -105.5 -60.5t-39.5 -125.5q0 -85 32 -134t102 -49t101.5 47t31.5 132z" />
    <glyph glyph-name="epsilon" unicode="&#x3b5;" horiz-adv-x="446" 
d="M165 274q-107 31 -107 128q0 66 53 101t137 35q62 0 104 -13.5t61 -23.5l-24 -68q-17 9 -51.5 19t-75.5 10q-20 0 -39 -3t-34 -11t-24 -22t-9 -35q0 -24 11.5 -40.5t30 -26t43 -14t50.5 -4.5h48v-68h-51q-28 0 -54 -4.5t-45.5 -14.5t-31.5 -27.5t-12 -42.5
q0 -27 10 -43.5t26.5 -25.5t36.5 -12t40 -3q42 0 79.5 9.5t61.5 20.5l24 -68q-20 -10 -65 -23.5t-118 -13.5q-89 0 -140.5 35.5t-51.5 113.5q0 57 30 89.5t87 45.5z" />
    <glyph glyph-name="zeta" unicode="&#x3b6;" horiz-adv-x="442" 
d="M136 260q0 -41 9.5 -68.5t30.5 -50t53.5 -42.5t78.5 -46q30 -17 55 -33t43.5 -32.5t28.5 -34.5t10 -40q0 -68 -45 -99.5t-117 -31.5q-43 0 -77 6t-63 17l16 64q47 -19 104 -19q40 0 66 12t26 43q0 21 -23 37.5t-57.5 34t-75 39.5t-75 53.5t-57.5 75t-23 105.5
q0 30 9.5 66t32.5 78t61 90.5t94 104.5l66 66h-223l-7 76h338v-66q-74 -72 -126.5 -129.5t-86.5 -105t-50 -89t-16 -81.5z" />
    <glyph glyph-name="eta" unicode="&#x3b7;" horiz-adv-x="579" 
d="M418 -208v525q0 38 -3 64t-12 42.5t-26 24t-45 7.5q-22 0 -46 -9.5t-47 -23.5t-42.5 -29.5t-31.5 -27.5v-365h-92v397q0 47 -1.5 83.5t-1.5 47.5h86l5 -84q16 14 39.5 30.5t50.5 30.5t57 23.5t60 9.5q72 0 107.5 -40t35.5 -125v-581h-93z" />
    <glyph glyph-name="theta" unicode="&#x3b8;" horiz-adv-x="593" 
d="M531 368q0 -101 -14 -172.5t-43 -117.5t-73.5 -67t-104.5 -21q-59 0 -103 21t-73 66t-43.5 117t-14.5 174q0 101 14.5 172t43.5 116t73 65.5t103 20.5q61 0 105.5 -20.5t73.5 -65.5t42.5 -116t13.5 -172zM296 669q-76 0 -106 -64.5t-30 -201.5h273q0 138 -30.5 202
t-106.5 64zM159 332q0 -127 31 -198.5t106 -71.5q38 0 64.5 18.5t42.5 53.5t23 85t7 113h-274z" />
    <glyph glyph-name="iota" unicode="&#x3b9;" horiz-adv-x="273" 
d="M73 401q0 22 -0.5 44t-1.5 41q-1 21 -1 42h92q1 -25 2 -51q1 -23 1.5 -49.5t0.5 -51.5v-235q0 -44 8.5 -59t25.5 -15q15 0 26.5 2.5t18.5 4.5l19 -67q-16 -5 -38 -11t-52 -6q-32 0 -51.5 8.5t-30.5 25.5t-15 42.5t-4 60.5v274v0z" />
    <glyph glyph-name="kappa" unicode="&#x3ba;" horiz-adv-x="502" 
d="M393 0l-228 257v-257h-93v528h93v-215l212 215h113l-243 -238l265 -290h-119z" />
    <glyph glyph-name="lambda" unicode="&#x3bb;" horiz-adv-x="510" 
d="M423 144q15 -45 24.5 -62t23.5 -17q13 0 24 3.5t17 5.5l19 -68q-13 -5 -34 -10.5t-47 -5.5q-15 0 -29 3t-26.5 13.5t-25 32t-24.5 59.5l-105 331l-129 -429h-101l187 545q-23 64 -38 92.5t-35 28.5q-16 0 -26.5 -2.5t-15.5 -4.5l-18 67q12 5 33.5 10.5t40.5 5.5
q17 0 33 -3t31.5 -14.5t29.5 -34t27 -60.5z" />
    <glyph glyph-name="mu" unicode="&#x3bc;" horiz-adv-x="581" 
d="M432 0l-7 70q-6 -12 -18 -26t-29.5 -26t-40 -20t-49.5 -8t-46.5 5.5t-34 14.5t-25 21t-18.5 26v-265h-92v736h94v-292q0 -31 4.5 -61.5t17 -54.5t36.5 -38.5t63 -14.5q66 0 98.5 44t32.5 122v295h93v-528h-79z" />
    <glyph glyph-name="nu" unicode="&#x3bd;" horiz-adv-x="487" 
d="M291 0h-99l-181 528h99l133 -435l137 435h96z" />
    <glyph glyph-name="xi" unicode="&#x3be;" horiz-adv-x="464" 
d="M318 356q-95 0 -137 -37.5t-42 -99.5q0 -39 12 -65.5t32.5 -44.5t48 -30t58.5 -23l64 -22t57 -26t40.5 -37.5t15.5 -57.5q0 -34 -12 -58.5t-33 -40.5t-50.5 -24t-64.5 -8q-45 0 -79 6t-63 17l16 64q47 -19 105 -19q39 0 65 12t26 43t-35 47.5t-97 36.5q-39 13 -75 29
t-64 41t-44.5 62t-16.5 91q0 42 12.5 73.5t32.5 54t45.5 36t51.5 18.5q-48 16 -79.5 61.5t-31.5 104.5q0 42 17 73.5t47 53.5t70.5 33t87.5 11h132q-4 -18 -7 -38t-6 -38h-110q-27 0 -52 -5t-44.5 -16.5t-31 -31t-11.5 -49.5q0 -58 38 -90.5t107 -32.5h106v-74h-101z" />
    <glyph glyph-name="omicron" unicode="&#x3bf;" horiz-adv-x="540" 
d="M495 264q0 -141 -60 -207.5t-165 -66.5q-106 0 -165.5 66.5t-59.5 207.5q0 140 59.5 207t165.5 67t165.5 -67t59.5 -207zM397 264q0 99 -29 150t-98 51q-70 0 -99 -51t-29 -150q0 -100 29 -151t99 -51q69 0 98 51t29 151z" />
    <glyph glyph-name="pi" unicode="&#x3c0;" horiz-adv-x="605" 
d="M100 0v450h-85l-8 78h571l-13 -78h-92v-306q0 -40 7 -59t31 -19q16 0 29 3.5t22 6.5l19 -67q-18 -7 -40 -13t-51 -6q-34 0 -55.5 8.5t-33.5 26.5t-16.5 45t-4.5 65v315h-187v-450h-93z" />
    <glyph glyph-name="rho" unicode="&#x3c1;" horiz-adv-x="557" 
d="M512 263q0 -76 -17 -128t-44 -84.5t-61 -46.5t-68 -14q-44 0 -86 12t-87 45v-255h-92v459q0 78 17 133t47 89t71.5 49.5t91.5 15.5q51 0 93 -16.5t72 -50t46.5 -85.5t16.5 -123zM414 259q0 102 -29.5 154t-100.5 52q-69 0 -101.5 -49.5t-32.5 -160.5v-130
q30 -26 67.5 -43.5t78.5 -17.5q60 0 89 46t29 149z" />
    <glyph glyph-name="sigma1" unicode="&#x3c2;" horiz-adv-x="446" 
d="M279 450q-75 0 -109.5 -43.5t-34.5 -134.5q0 -42 11 -71.5t31.5 -53t50.5 -43t68 -41.5q34 -20 63 -37t49 -34.5t31.5 -36.5t11.5 -42q0 -68 -45 -99.5t-116 -31.5q-44 0 -78 6t-63 17l16 64q47 -19 105 -19q39 0 65 12t26 43q0 13 -10 24.5t-26.5 22t-38 21t-45.5 23.5
q-31 17 -65.5 39.5t-64 54.5t-48.5 75t-19 102q0 69 16.5 118.5t46.5 81t73 46.5t97 15h143q-4 -19 -7 -39t-6 -39h-128z" />
    <glyph glyph-name="sigma" unicode="&#x3c3;" horiz-adv-x="544" 
d="M493 249q0 -76 -22 -130.5t-60 -85.5q-26 -21 -62.5 -32t-78.5 -11q-106 0 -165.5 66t-59.5 207t59.5 208t165.5 67q23 0 42 -1.5t38.5 -3.5t41.5 -3.5t52 -1.5h85l-13 -78h-24q-26 0 -48 4t-35 7q9 -8 23.5 -25t28 -43.5t23 -62.5t9.5 -81zM397 248q0 36 -7 74.5
t-22 70.5q-14 30 -38.5 50.5t-62.5 20.5q-69 0 -97 -50.5t-28 -149.5q0 -100 29 -151t99 -51q42 0 67.5 17.5t39.5 50.5q12 27 16 56.5t4 61.5z" />
    <glyph glyph-name="tau" unicode="&#x3c4;" horiz-adv-x="432" 
d="M244 450v-302q0 -35 7.5 -58t36.5 -23q17 0 36 5t29 8l19 -69q-20 -8 -49.5 -14.5t-55.5 -6.5q-37 0 -60 10t-35.5 30.5t-16.5 50.5t-4 71v298h-137l-8 78h400l-13 -78h-149z" />
    <glyph glyph-name="upsilon" unicode="&#x3c5;" horiz-adv-x="564" 
d="M501 227q0 -114 -53.5 -175.5t-165.5 -61.5q-113 0 -166 61.5t-53 175.5v301h93v-299q0 -81 31.5 -124t94.5 -43q64 0 95 43t31 124v299h93v-301v0z" />
    <glyph glyph-name="phi" unicode="&#x3c6;" horiz-adv-x="732" 
d="M682 265q0 -66 -17 -117t-47.5 -86t-73 -53.5t-94.5 -18.5h-50v-198h-89v198q-67 0 -116 19t-81.5 53.5t-48 83.5t-15.5 109q0 61 15.5 108t40.5 81t56 56t63 33l31 -60q-21 -9 -40.5 -26.5t-34.5 -43.5t-24.5 -61.5t-9.5 -80.5q0 -43 8 -79.5t27.5 -63.5t50.5 -42
t78 -15v281q0 49 13 85.5t35.5 61t53.5 37t68 12.5q53 0 91 -21.5t62.5 -58.5t36 -86.5t11.5 -106.5zM400 61h50q68 0 101 55.5t33 146.5q0 37 -5 73.5t-17 65.5t-32 46.5t-50 17.5q-44 0 -62 -36t-18 -107v-262z" />
    <glyph glyph-name="chi" unicode="&#x3c7;" horiz-adv-x="475" 
d="M361 0l-128 212l-124 -212h-95l170 275l-155 253h100l113 -194l110 194h95l-155 -255l169 -273h-100z" />
    <glyph glyph-name="psi" unicode="&#x3c8;" horiz-adv-x="718" 
d="M404 -10v-198h-89v198h-20q-116 0 -173.5 66.5t-57.5 206.5v265h93v-262q0 -99 31 -151t109 -52h18v535h89v-535h17q78 0 109 52t31 151v262h93v-265q0 -140 -57.5 -206.5t-173.5 -66.5h-19z" />
    <glyph glyph-name="omega" unicode="&#x3c9;" horiz-adv-x="747" 
d="M512 -10q-29 0 -51.5 9t-39.5 24t-29 34t-19 38q-8 -19 -19.5 -38t-28 -34t-39 -24t-51.5 -9q-88 0 -136.5 66.5t-48.5 187.5q0 68 14 117.5t37 84t52 55.5t60 32l32 -60q-21 -9 -38.5 -26t-31 -42.5t-21 -62t-7.5 -84.5q0 -38 5.5 -73t17.5 -62t31.5 -43t47.5 -16
q32 0 55.5 37t23.5 96v217h91v-217q0 -59 23.5 -96t55.5 -37q28 0 47.5 16.5t31.5 43.5t17.5 62t5.5 72q0 96 -28 146t-70 69l32 60q31 -11 60 -32t52 -55.5t37 -84t14 -117.5q0 -123 -48.5 -188.5t-136.5 -65.5z" />
    <glyph glyph-name="iotadieresis" unicode="&#x3ca;" horiz-adv-x="273" 
d="M73 401q0 22 -0.5 44t-1.5 41q-1 21 -1 42h92q1 -25 2 -51q1 -23 1.5 -49.5t0.5 -51.5v-235q0 -44 8.5 -59t25.5 -15q15 0 26.5 2.5t18.5 4.5l19 -67q-16 -5 -38 -11t-52 -6q-32 0 -51.5 8.5t-30.5 25.5t-15 42.5t-4 60.5v274v0zM292 678q0 -26 -17 -42.5t-41 -16.5
t-41 16.5t-17 42.5q0 24 17 41t41 17t41 -17t17 -41zM68 678q0 -26 -16.5 -42.5t-40.5 -16.5t-41 16.5t-17 42.5q0 24 17 41t41 17t40.5 -17t16.5 -41z" />
    <glyph glyph-name="upsilondieresis" unicode="&#x3cb;" horiz-adv-x="564" 
d="M501 227q0 -114 -53.5 -175.5t-165.5 -61.5q-113 0 -166 61.5t-53 175.5v301h93v-299q0 -81 31.5 -124t94.5 -43q64 0 95 43t31 124v299h93v-301v0zM454 678q0 -26 -17 -42.5t-41 -16.5t-41 16.5t-17 42.5q0 24 17 41t41 17t41 -17t17 -41zM230 678q0 -26 -16.5 -42.5
t-40.5 -16.5t-41 16.5t-17 42.5q0 24 17 41t41 17t40.5 -17t16.5 -41z" />
    <glyph glyph-name="omicrontonos" unicode="&#x3cc;" horiz-adv-x="540" 
d="M495 264q0 -141 -60 -207.5t-165 -66.5q-106 0 -165.5 66.5t-59.5 207.5q0 140 59.5 207t165.5 67t165.5 -67t59.5 -207zM397 264q0 99 -29 150t-98 51q-70 0 -99 -51t-29 -150q0 -100 29 -151t99 -51q69 0 98 51t29 151zM290 611l-58 2l-4 192l91 -5z" />
    <glyph glyph-name="upsilontonos" unicode="&#x3cd;" horiz-adv-x="564" 
d="M501 227q0 -114 -53.5 -175.5t-165.5 -61.5q-113 0 -166 61.5t-53 175.5v301h93v-299q0 -81 31.5 -124t94.5 -43q64 0 95 43t31 124v299h93v-301v0zM310 611l-58 2l-4 192l91 -5z" />
    <glyph glyph-name="omegatonos" unicode="&#x3ce;" horiz-adv-x="747" 
d="M512 -10q-29 0 -51.5 9t-39.5 24t-29 34t-19 38q-8 -19 -19.5 -38t-28 -34t-39 -24t-51.5 -9q-88 0 -136.5 66.5t-48.5 187.5q0 68 14 117.5t37 84t52 55.5t60 32l32 -60q-21 -9 -38.5 -26t-31 -42.5t-21 -62t-7.5 -84.5q0 -38 5.5 -73t17.5 -62t31.5 -43t47.5 -16
q32 0 55.5 37t23.5 96v217h91v-217q0 -59 23.5 -96t55.5 -37q28 0 47.5 16.5t31.5 43.5t17.5 62t5.5 72q0 96 -28 146t-70 69l32 60q31 -11 60 -32t52 -55.5t37 -84t14 -117.5q0 -123 -48.5 -188.5t-136.5 -65.5zM402 611l-58 2l-4 192l91 -5z" />
    <glyph glyph-name="afii10023" unicode="&#x401;" horiz-adv-x="492" 
d="M81 0v667h376l-13 -83h-266v-201h213v-77h-213v-224h270l13 -82h-380zM431 792q0 -26 -17 -42.5t-41 -16.5t-41 16.5t-17 42.5q0 24 17 41t41 17t41 -17t17 -41zM207 792q0 -26 -16.5 -42.5t-40.5 -16.5t-41 16.5t-17 42.5q0 24 17 41t41 17t40.5 -17t16.5 -41z" />
    <glyph glyph-name="afii10051" unicode="&#x402;" horiz-adv-x="671" 
d="M462 667l-12 -82h-166v-214q30 11 66 18t72 7q30 0 67 -7t69.5 -27t54.5 -58t22 -99q0 -56 -19 -95t-52.5 -64t-79.5 -36t-101 -11h-19t-19 1v76h29q34 0 63.5 5.5t51 20t34 39.5t12.5 64q0 31 -10.5 53t-29 35.5t-43.5 19.5t-55 6q-23 0 -56 -6t-57 -18v-295h-97v585
h-167l-12 82h454z" />
    <glyph glyph-name="afii10052" unicode="&#x403;" horiz-adv-x="433" 
d="M423 667l-12 -82h-233v-585h-97v667h342zM195 718l-40 47l154 159l59 -70z" />
    <glyph glyph-name="afii10053" unicode="&#x404;" horiz-adv-x="506" 
d="M480 23q-32 -14 -72.5 -24.5t-94.5 -10.5q-70 0 -119 21.5t-80.5 65t-46 108t-14.5 151.5q0 85 14.5 149.5t45.5 108t80 65.5t118 22q57 0 96 -12t63 -23l-26 -75q-23 10 -53 19.5t-70 9.5q-86 0 -124.5 -57t-43.5 -159h198v-76h-199q1 -55 10.5 -98.5t29.5 -74t51.5 -47
t76.5 -16.5q40 0 73 9t63 20z" />
    <glyph glyph-name="afii10054" unicode="&#x405;" horiz-adv-x="478" 
d="M446 178q0 -50 -16.5 -86t-46.5 -59t-72 -34t-93 -11q-57 0 -106 9t-83 23l17 75q29 -11 70.5 -21t88.5 -10q24 0 48 5t43.5 16.5t32 30.5t12.5 48q0 30 -22.5 54t-56.5 46.5t-73 45.5t-73 51t-56.5 63t-22.5 82q0 46 17 79t46 54t66.5 30.5t79.5 9.5q48 0 93 -7t79 -18
l-16 -76q-25 8 -63.5 16t-83.5 8q-20 0 -40.5 -5t-37.5 -16t-27.5 -27.5t-10.5 -39.5q0 -32 22.5 -57.5t57 -49t74 -46t74 -49t57 -59t22.5 -75.5z" />
    <glyph glyph-name="afii10055" unicode="&#x406;" horiz-adv-x="259" 
d="M81 0v667h97v-667h-97z" />
    <glyph glyph-name="afii10056" unicode="&#x407;" horiz-adv-x="259" 
d="M81 0v667h97v-667h-97zM302 792q0 -26 -17 -42.5t-41 -16.5t-41 16.5t-17 42.5q0 24 17 41t41 17t41 -17t17 -41zM78 792q0 -26 -16.5 -42.5t-40.5 -16.5t-41 16.5t-17 42.5q0 24 17 41t41 17t40.5 -17t16.5 -41z" />
    <glyph glyph-name="afii10057" unicode="&#x408;" horiz-adv-x="262" 
d="M181 42q0 -47 -8.5 -78t-25 -50t-40 -27t-53.5 -8q-25 0 -40.5 4t-24.5 7l14 70q5 -2 12 -3.5t16 -1.5q13 0 23 4t16.5 15.5t10 33t3.5 56.5v603h97v-625z" />
    <glyph glyph-name="afii10058" unicode="&#x409;" horiz-adv-x="927" 
d="M197 145q-2 -44 -10 -74t-22.5 -48t-36.5 -26t-52 -8q-23 0 -38 3t-29 8l15 69q5 -2 11.5 -3t15.5 -1q12 0 21.5 3.5t15.5 13.5t9.5 28.5t4.5 48.5l19 508h417v-274q6 0 19.5 0.5t30.5 1t36.5 1t36.5 0.5q34 0 67.5 -3.5t62.5 -17.5q18 -9 36 -22t32.5 -33.5t23 -48.5
t8.5 -65q0 -74 -37.5 -122.5t-102.5 -68.5q-31 -10 -66.5 -12.5t-67.5 -2.5h-176v585h-226zM791 201q0 36 -12 59t-32.5 36.5t-47.5 18.5t-58 5q-14 0 -31.5 -0.5t-33.5 -1.5q-18 -1 -38 -1v-239h87q31 0 61 5.5t53.5 19t37.5 37.5t14 61z" />
    <glyph glyph-name="afii10059" unicode="&#x40a;" horiz-adv-x="950" 
d="M561 667v-274q6 0 19.5 0.5t30.5 1t36.5 1t36.5 0.5q34 0 67.5 -3.5t62.5 -17.5q18 -9 36 -22t32.5 -33.5t23 -48.5t8.5 -65q0 -74 -37.5 -122.5t-102.5 -68.5q-31 -10 -66.5 -12.5t-67.5 -2.5h-176v303h-286v-303h-97v667h97v-283h286v283h97zM814 201q0 36 -12 59
t-32.5 36.5t-47.5 18.5t-58 5q-14 0 -31.5 -0.5t-33.5 -1.5q-18 -1 -38 -1v-239h87q31 0 61 5.5t53.5 19t37.5 37.5t14 61z" />
    <glyph glyph-name="afii10060" unicode="&#x40b;" horiz-adv-x="689" 
d="M462 667l-12 -82h-166v-202q32 7 64 10t58 3q31 0 69 -6.5t71 -27.5t55 -59.5t22 -102.5v-200h-97v183q0 33 -9 54q-6 25 -19 41t-30 25t-38 12.5t-45 3.5q-22 0 -50 -3.5t-51 -8.5v-307h-97v585h-167l-12 82h454z" />
    <glyph glyph-name="afii10061" unicode="&#x40c;" horiz-adv-x="529" 
d="M407 0l-229 311v-311h-97v667h97v-289l218 289h110l-246 -320l266 -347h-119zM246 718l-40 47l154 159l59 -70z" />
    <glyph glyph-name="afii10062" unicode="&#x40e;" horiz-adv-x="535" 
d="M143 -11q-29 0 -51.5 4.5t-42.5 10.5l18 74q10 -3 27.5 -7t34.5 -4q16 0 28.5 3.5t23 12.5t20.5 25.5t21 42.5l-199 516h107l146 -419l149 419h102l-212 -538q-12 -30 -27 -55.5t-35 -44.5t-47 -29.5t-63 -10.5zM274 729q-75 0 -112 36t-37 105h62q0 -14 4.5 -27
t14.5 -23t26.5 -16t41.5 -6q50 0 68.5 21.5t19.5 50.5h62q-2 -68 -38.5 -104.5t-111.5 -36.5z" />
    <glyph glyph-name="afii10145" unicode="&#x40f;" horiz-adv-x="628" 
d="M359 -131h-90v131h-188v667h97v-585h272v585h97v-667h-188v-131z" />
    <glyph glyph-name="afii10017" unicode="&#x410;" horiz-adv-x="569" 
d="M448 0l-42 131h-247l-43 -131h-100l215 667h108l214 -667h-105zM283 547l-104 -340h207z" />
    <glyph glyph-name="afii10018" unicode="&#x411;" horiz-adv-x="567" 
d="M437 667l-12 -82h-247v-192q6 0 19.5 0.5t30.5 1t36.5 1t36.5 0.5q34 0 67.5 -3.5t62.5 -17.5q18 -9 36 -22t32.5 -33.5t23 -48.5t8.5 -65q0 -74 -37.5 -122.5t-102.5 -68.5q-31 -10 -66.5 -12.5t-67.5 -2.5h-176v667h356zM431 201q0 36 -12 59t-32.5 36.5t-47.5 18.5
t-58 5q-14 0 -31.5 -0.5t-33.5 -1.5q-18 -1 -38 -1v-239h87q31 0 61 5.5t53.5 19t37.5 37.5t14 61z" />
    <glyph glyph-name="afii10019" unicode="&#x412;" horiz-adv-x="565" 
d="M522 180q0 -90 -62.5 -135t-209.5 -45h-169v667h160q63 0 111.5 -6t82.5 -23.5t51.5 -50t17.5 -85.5q0 -65 -33.5 -106.5t-96.5 -49.5q32 -3 59 -11.5t47 -27.5t31 -49.5t11 -77.5zM404 486q0 33 -9.5 53.5t-30.5 32.5t-54 16t-81 4h-51v-213h61q44 0 75 5t51 17
t29.5 32.5t9.5 52.5zM422 191q0 31 -10 53t-32.5 36.5t-59.5 21.5t-91 7h-51v-235h53q53 0 89.5 5t59 18.5t32.5 36t10 57.5z" />
    <glyph glyph-name="afii10020" unicode="&#x413;" horiz-adv-x="433" 
d="M423 667l-12 -82h-233v-585h-97v667h342z" />
    <glyph glyph-name="afii10021" unicode="&#x414;" horiz-adv-x="654" 
d="M464 585h-228l-4 -180q-2 -54 -6 -102.5t-14 -90t-27.5 -75t-45.5 -55.5h325v503zM6 -128v202q38 12 63 39.5t40 69t21.5 96t7.5 121.5l5 267h418v-585h56v-210h-90v128h-431v-128h-90z" />
    <glyph glyph-name="afii10022" unicode="&#x415;" horiz-adv-x="492" 
d="M81 0v667h376l-13 -83h-266v-201h213v-77h-213v-224h270l13 -82h-380z" />
    <glyph glyph-name="afii10024" unicode="&#x416;" horiz-adv-x="799" 
d="M3 0l266 347l-246 320h110l218 -289v289h97v-289l218 289h110l-246 -320l266 -347h-119l-229 311v-311h-97v311l-229 -311h-119z" />
    <glyph glyph-name="afii10025" unicode="&#x417;" horiz-adv-x="502" 
d="M448 195q0 -103 -61.5 -155t-182.5 -52q-33 0 -63 5t-55 11.5t-43 13t-25 9.5l26 76q16 -7 57.5 -20.5t101.5 -13.5q69 0 106.5 31.5t37.5 96.5q0 30 -12 50.5t-33.5 34t-50.5 19.5t-62 6h-76v76h56q75 0 117 27.5t42 92.5q0 49 -32.5 72t-87.5 23q-27 0 -51.5 -4.5
t-44 -10t-32.5 -10.5t-17 -7l-28 73q23 10 72.5 25t117.5 15q95 0 149.5 -42t54.5 -126q0 -59 -29 -99t-94 -59q42 -10 69 -26.5t43.5 -37.5t23 -45t6.5 -49z" />
    <glyph glyph-name="afii10026" unicode="&#x418;" horiz-adv-x="642" 
d="M81 0v667h96v-522l283 522h101v-667h-95v519l-281 -519h-104z" />
    <glyph glyph-name="afii10027" unicode="&#x419;" horiz-adv-x="642" 
d="M81 0v667h96v-522l283 522h101v-667h-95v519l-281 -519h-104zM323 729q-75 0 -112 36t-37 105h62q0 -14 4.5 -27t14.5 -23t26.5 -16t41.5 -6q50 0 68.5 21.5t19.5 50.5h62q-2 -68 -38.5 -104.5t-111.5 -36.5z" />
    <glyph glyph-name="afii10028" unicode="&#x41a;" horiz-adv-x="529" 
d="M407 0l-229 311v-311h-97v667h97v-289l218 289h110l-246 -320l266 -347h-119z" />
    <glyph glyph-name="afii10029" unicode="&#x41b;" horiz-adv-x="620" 
d="M196 145q-2 -44 -10 -74t-22.5 -48t-36.5 -26t-52 -8q-23 0 -38 3t-29 8l15 69q5 -2 11.5 -3t15.5 -1q12 0 21.5 3.5t15.5 13.5t9.5 28.5t4.5 48.5l19 508h417v-667h-96v585h-227z" />
    <glyph glyph-name="afii10030" unicode="&#x41c;" horiz-adv-x="699" 
d="M552 0l-44 482l-124 -351h-77l-124 351l-44 -482h-92l61 667h93l147 -413l149 413h94l61 -667h-100z" />
    <glyph glyph-name="afii10031" unicode="&#x41d;" horiz-adv-x="641" 
d="M464 0v303h-286v-303h-97v667h97v-283h286v283h96v-667h-96z" />
    <glyph glyph-name="afii10032" unicode="&#x41e;" horiz-adv-x="618" 
d="M564 334q0 -177 -65 -261.5t-190 -84.5q-126 0 -190.5 84.5t-64.5 261.5q0 176 64.5 260.5t190.5 84.5q125 0 190 -84.5t65 -260.5zM464 334q0 61 -9 110.5t-27.5 84t-48 53t-70.5 18.5t-70.5 -18.5t-48.5 -53t-28 -84t-9 -110.5q0 -62 9 -112t28 -84.5t48.5 -53
t70.5 -18.5q82 0 118.5 71.5t36.5 196.5z" />
    <glyph glyph-name="afii10033" unicode="&#x41f;" horiz-adv-x="628" 
d="M450 0v584h-272v-584h-97v667h466v-667h-97z" />
    <glyph glyph-name="afii10034" unicode="&#x420;" horiz-adv-x="548" 
d="M512 465q0 -205 -250 -205h-84v-260h-97v667h180q134 0 192.5 -50t58.5 -152zM412 465q0 70 -39.5 97t-114.5 27h-80v-253h80q82 0 118 30t36 99z" />
    <glyph glyph-name="afii10035" unicode="&#x421;" horiz-adv-x="506" 
d="M480 22q-32 -14 -74.5 -24t-97.5 -10q-69 0 -117.5 21.5t-79 65t-44.5 108t-14 151.5q0 85 14 149.5t44.5 108t79.5 65.5t118 22q59 0 98 -12t63 -22l-26 -76q-23 10 -53 19t-70 9q-48 0 -80 -18t-52 -51.5t-28.5 -82.5t-8.5 -111q0 -61 8 -109.5t27.5 -82.5t52 -52.5
t80.5 -18.5q40 0 73.5 8.5t62.5 19.5z" />
    <glyph glyph-name="afii10036" unicode="&#x422;" horiz-adv-x="450" 
d="M427 585h-155v-585h-97v585h-155l-12 82h431z" />
    <glyph glyph-name="afii10037" unicode="&#x423;" horiz-adv-x="535" 
d="M143 -11q-29 0 -51.5 4.5t-42.5 10.5l18 74q10 -3 27.5 -7t34.5 -4q16 0 28.5 3.5t23 12.5t20.5 25.5t21 42.5l-199 516h107l146 -419l149 419h102l-212 -538q-12 -30 -27 -55.5t-35 -44.5t-47 -29.5t-63 -10.5z" />
    <glyph glyph-name="afii10038" unicode="&#x424;" horiz-adv-x="746" 
d="M419 0h-93v56q-138 0 -207 70.5t-69 206.5q0 135 69 207t207 72v55h93v-55q138 0 207.5 -71t69.5 -207q0 -135 -69.5 -206.5t-207.5 -71.5v-56zM150 334q0 -104 44 -152.5t132 -48.5v402q-88 0 -132 -48t-44 -153zM419 133q88 0 133 47.5t45 152.5q0 104 -45 153t-133 49
v-402z" />
    <glyph glyph-name="afii10039" unicode="&#x425;" horiz-adv-x="563" 
d="M436 0l-155 283l-160 -283h-108l209 347l-190 320h113l136 -255l137 255h110l-186 -320l210 -347h-116z" />
    <glyph glyph-name="afii10040" unicode="&#x426;" horiz-adv-x="640" 
d="M513 -128v128h-432v667h97v-585h272v585h97v-585h56v-210h-90z" />
    <glyph glyph-name="afii10041" unicode="&#x427;" horiz-adv-x="587" 
d="M53 667h97v-189q0 -65 19 -99t77 -34q51 0 95 6.5t68 13.5v302h97v-667h-97v289q-26 -7 -69 -15t-112 -8q-44 0 -76.5 10t-54 32.5t-32.5 59t-12 89.5v210z" />
    <glyph glyph-name="afii10042" unicode="&#x428;" horiz-adv-x="868" 
d="M81 0v667h97v-585h208v585h96v-585h208v585h97v-667h-706z" />
    <glyph glyph-name="afii10043" unicode="&#x429;" horiz-adv-x="880" 
d="M753 -128v128h-672v667h97v-585h208v585h96v-585h208v585h97v-585h56v-210h-90z" />
    <glyph glyph-name="afii10044" unicode="&#x42a;" horiz-adv-x="685" 
d="M296 667v-274q6 0 19.5 0.5t30.5 1t36.5 1t36.5 0.5q34 0 67.5 -3.5t62.5 -17.5q18 -9 36 -22t32.5 -33.5t23 -48.5t8.5 -65q0 -74 -37.5 -122.5t-102.5 -68.5q-31 -10 -66.5 -12.5t-67.5 -2.5h-176v585h-179l-12 82h288zM549 201q0 36 -12 59t-32.5 36.5t-47.5 18.5
t-58 5q-14 0 -31.5 -0.5t-33.5 -1.5q-18 -1 -38 -1v-239h87q31 0 61 5.5t53.5 19t37.5 37.5t14 61z" />
    <glyph glyph-name="afii10045" unicode="&#x42b;" horiz-adv-x="809" 
d="M727 667v-667h-97v667h97zM178 667v-274q6 0 19.5 0.5t30.5 1t36.5 1t36.5 0.5q34 0 67.5 -3.5t62.5 -17.5q18 -9 36 -22t32.5 -33.5t23 -48.5t8.5 -65q0 -74 -37.5 -122.5t-102.5 -68.5q-31 -10 -66.5 -12.5t-67.5 -2.5h-176v667h97zM431 201q0 36 -12 59t-32.5 36.5
t-47.5 18.5t-58 5q-14 0 -31.5 -0.5t-33.5 -1.5q-18 -1 -38 -1v-239h87q31 0 61 5.5t53.5 19t37.5 37.5t14 61z" />
    <glyph glyph-name="afii10046" unicode="&#x42c;" horiz-adv-x="567" 
d="M178 667v-274q6 0 19.5 0.5t30.5 1t36.5 1t36.5 0.5q34 0 67.5 -3.5t62.5 -17.5q18 -9 36 -22t32.5 -33.5t23 -48.5t8.5 -65q0 -74 -37.5 -122.5t-102.5 -68.5q-31 -10 -66.5 -12.5t-67.5 -2.5h-176v667h97zM431 201q0 36 -12 59t-32.5 36.5t-47.5 18.5t-58 5
q-14 0 -31.5 -0.5t-33.5 -1.5q-18 -1 -38 -1v-239h87q31 0 61 5.5t53.5 19t37.5 37.5t14 61z" />
    <glyph glyph-name="afii10047" unicode="&#x42d;" horiz-adv-x="506" 
d="M50 99q30 -11 63 -20t73 -9q45 0 76.5 16.5t51.5 47t29 74t11 98.5h-199v76h198q-5 102 -43.5 159t-124.5 57q-40 0 -70 -9.5t-53 -19.5l-26 75q24 11 63 23t96 12q69 0 118 -22t80 -65.5t45.5 -108t14.5 -149.5q0 -173 -60.5 -259.5t-199.5 -86.5q-54 0 -94.5 10.5
t-72.5 24.5z" />
    <glyph glyph-name="afii10048" unicode="&#x42e;" horiz-adv-x="912" 
d="M858 334q0 -177 -65 -261.5t-190 -84.5q-121 0 -185 77t-70 238h-170v-303h-97v667h97v-283h171q9 150 73 222.5t181 72.5q125 0 190 -84.5t65 -260.5zM758 334q0 61 -9 110.5t-27.5 84t-48 53t-70.5 18.5t-70.5 -18.5t-48.5 -53t-28 -84t-9 -110.5q0 -62 9 -112
t28 -84.5t48.5 -53t70.5 -18.5q82 0 118.5 71.5t36.5 196.5z" />
    <glyph glyph-name="afii10049" unicode="&#x42f;" horiz-adv-x="563" 
d="M159 477q0 -64 35.5 -90.5t116.5 -26.5h75v230h-77q-43 0 -71.5 -6t-46 -19.5t-25 -35t-7.5 -52.5zM20 0l202 293q-31 4 -61 16.5t-53 34.5t-37.5 55t-14.5 79q0 55 17 91.5t49.5 58t78.5 30.5t105 9h176v-667h-96v286h-64l-189 -286h-113z" />
    <glyph glyph-name="afii10065" unicode="&#x430;" horiz-adv-x="520" 
d="M370 0l-9 78q-12 -16 -28 -32t-36.5 -28.5t-47.5 -20t-61 -7.5q-30 0 -57.5 8.5t-48.5 27t-33.5 47.5t-12.5 70q0 53 20 88.5t58.5 57t93.5 30.5t124 9h26v17q0 60 -23 89t-89 29q-45 0 -89 -9.5t-79 -20.5l-16 68q43 15 94.5 26t102.5 11q94 0 143.5 -41.5t49.5 -140.5
v-356h-82zM358 265h-43q-99 0 -142 -27.5t-43 -81.5q0 -39 18 -65t69 -26q29 0 52 9t40.5 22t29.5 27t19 24v118z" />
    <glyph glyph-name="afii10066" unicode="&#x431;" horiz-adv-x="545" 
d="M499 259q0 -137 -60.5 -203t-165.5 -66q-65 0 -113.5 26t-76.5 80q-20 38 -28 89t-8 121q0 82 18.5 146t57.5 115t98.5 92t142.5 77l41 18l34 -77l-56 -24q-64 -28 -108 -55t-72 -55t-42.5 -58t-20.5 -64q24 40 63.5 62t81.5 22q99 0 156.5 -64t57.5 -182zM401 255
q0 85 -29 131t-99 46q-62 0 -94.5 -49.5t-32.5 -127.5q0 -92 29 -142.5t98 -50.5q70 0 99 50.5t29 142.5z" />
    <glyph glyph-name="afii10067" unicode="&#x432;" horiz-adv-x="519" 
d="M471 142q0 -30 -9.5 -56t-33.5 -45t-65 -30t-103 -11h-187v528h165q51 0 91 -4.5t67.5 -18.5t42 -39.5t14.5 -67.5q0 -50 -28.5 -82.5t-72.5 -39.5q23 -2 44.5 -9.5t38 -23t26.5 -40.5t10 -61zM357 384q0 26 -7.5 40.5t-24 22t-42.5 9.5t-63 2h-56v-154h77q26 0 47.5 3
t36.5 12t23.5 24.5t8.5 40.5zM374 151q0 49 -30.5 69.5t-88.5 20.5h-91v-171h93q61 0 89 19t28 62z" />
    <glyph glyph-name="afii10068" unicode="&#x433;" horiz-adv-x="349" 
d="M329 450h-164v-450h-92v528h269z" />
    <glyph glyph-name="afii10069" unicode="&#x434;" horiz-adv-x="564" 
d="M448 -137v137h-356v-137h-84v208q24 0 40 11t26 32.5t15 53.5t7 75l14 285h371v-450h51v-215h-84zM389 450h-195l-16 -267q-2 -39 -10 -64.5t-28 -40.5h249v372z" />
    <glyph glyph-name="afii10070" unicode="&#x435;" horiz-adv-x="526" 
d="M481 268v-13t-1 -13h-338q0 -50 11.5 -83t31.5 -53.5t47 -29t58 -8.5q37 0 74.5 8.5t67.5 23.5l25 -69q-24 -14 -73 -27.5t-113 -13.5q-44 0 -84.5 13t-72 43.5t-50.5 81t-19 124.5t18 128t49 89t71.5 52t85.5 17q47 0 86 -17t67 -50.5t43.5 -84.5t15.5 -118zM383 305
q-2 45 -12 75t-26 49t-36.5 27t-43.5 8t-44.5 -9.5t-38.5 -29t-28 -49.5t-13 -71h242z" />
    <glyph glyph-name="afii10072" unicode="&#x436;" horiz-adv-x="767" 
d="M-10 0l265 290l-243 238h113l212 -215v215h93v-215l212 215h113l-243 -238l265 -290h-119l-228 257v-257h-93v257l-228 -257h-119z" />
    <glyph glyph-name="afii10073" unicode="&#x437;" horiz-adv-x="438" 
d="M390 153q0 -82 -56.5 -122.5t-151.5 -40.5q-54 0 -95 9t-69 22l24 70q11 -5 45.5 -14.5t80.5 -9.5q54 0 89 21.5t35 71.5q0 24 -10.5 39.5t-28.5 24t-42.5 12t-52.5 3.5h-64v69h53q62 0 95.5 17.5t33.5 67.5q0 20 -8.5 33t-23.5 21t-34 11t-40 3t-40 -3t-34.5 -7
t-25.5 -7.5t-13 -4.5l-25 70q25 10 65 19.5t99 9.5q37 0 69.5 -8.5t56.5 -25.5t37.5 -41.5t13.5 -57.5q0 -98 -94 -126q61 -15 86 -49.5t25 -76.5z" />
    <glyph glyph-name="afii10074" unicode="&#x438;" horiz-adv-x="570" 
d="M73 0v528h91v-395l236 395h97v-528h-91v396l-236 -396h-97z" />
    <glyph glyph-name="afii10075" unicode="&#x439;" horiz-adv-x="570" 
d="M73 0v528h91v-395l236 395h97v-528h-91v396l-236 -396h-97zM288 615q-75 0 -112 36t-37 105h62q0 -14 4.5 -27t14.5 -23t26.5 -16t41.5 -6q50 0 68.5 21.5t19.5 50.5h62q-2 -68 -38.5 -104.5t-111.5 -36.5z" />
    <glyph glyph-name="afii10076" unicode="&#x43a;" horiz-adv-x="502" 
d="M393 0l-228 257v-257h-93v528h93v-215l212 215h113l-243 -238l265 -290h-119z" />
    <glyph glyph-name="afii10077" unicode="&#x43b;" horiz-adv-x="581" 
d="M195 132q-2 -36 -7.5 -62.5t-18 -44t-32.5 -26.5t-50 -9q-29 0 -47.5 5.5t-31.5 10.5l19 66q5 -2 14.5 -5t22.5 -3q23 0 32 18t11 58l20 388h381v-528h-92v450h-205z" />
    <glyph glyph-name="afii10078" unicode="&#x43c;" horiz-adv-x="617" 
d="M479 0l-38 374l-98 -272h-73l-98 272l-38 -374h-88l57 527h88l118 -329l117 329h86l56 -527h-89z" />
    <glyph glyph-name="afii10079" unicode="&#x43d;" horiz-adv-x="568" 
d="M403 0v234h-238v-234h-92v528h92v-219h238v219h92v-528h-92z" />
    <glyph glyph-name="afii10080" unicode="&#x43e;" horiz-adv-x="540" 
d="M495 264q0 -141 -60 -207.5t-165 -66.5q-106 0 -165.5 66.5t-59.5 207.5q0 140 59.5 207t165.5 67t165.5 -67t59.5 -207zM397 264q0 99 -29 150t-98 51q-70 0 -99 -51t-29 -150q0 -100 29 -151t99 -51q69 0 98 51t29 151z" />
    <glyph glyph-name="afii10081" unicode="&#x43f;" horiz-adv-x="568" 
d="M403 0v450h-238v-450h-92v528h422v-528h-92z" />
    <glyph glyph-name="afii10082" unicode="&#x440;" horiz-adv-x="573" 
d="M527 263q0 -76 -17 -128t-44 -84.5t-61 -46.5t-68 -14q-45 0 -86.5 12t-86.5 45v-255h-92v600q0 48 -1 86t-1 50h85l6 -89q38 50 89.5 74t100.5 24q33 0 64.5 -14t56 -46t40 -84.5t15.5 -129.5zM429 259q0 102 -26 148t-87 46q-21 0 -43 -9t-42 -24t-37.5 -34t-28.5 -38
v-223q30 -26 67.5 -43.5t78.5 -17.5q60 0 89 46t29 149z" />
    <glyph glyph-name="afii10083" unicode="&#x441;" horiz-adv-x="423" 
d="M418 25q-27 -13 -66 -24t-94 -11q-213 0 -213 274q0 136 53 205t160 69q55 0 90 -11.5t60 -23.5l-25 -71q-22 11 -49.5 19.5t-61.5 8.5q-71 0 -100.5 -48t-29.5 -148t29.5 -148t99.5 -48q35 0 66.5 8.5t54.5 19.5z" />
    <glyph glyph-name="afii10084" unicode="&#x442;" horiz-adv-x="423" 
d="M404 450h-147v-450h-93v450h-150l-8 78h411z" />
    <glyph glyph-name="afii10085" unicode="&#x443;" horiz-adv-x="481" 
d="M261 -70q-18 -52 -34 -81.5t-32.5 -44.5t-33.5 -18.5t-38 -3.5q-19 0 -34 4t-29 10l16 69q5 -2 15.5 -5t25.5 -3q20 0 34.5 21t30.5 68l12 35l-184 547h101l127 -440l135 440h96z" />
    <glyph glyph-name="afii10086" unicode="&#x444;" horiz-adv-x="816" 
d="M770 265q0 -50 -11 -99t-34 -88t-60 -63.5t-89 -24.5q-42 0 -72.5 17t-50.5 46v-261h-91v264q-20 -32 -53 -49t-76 -17q-55 0 -91 26.5t-57.5 67.5t-30 89t-8.5 92q0 51 10 100t32.5 87.5t59.5 62t90 23.5q43 0 73.5 -19.5t50.5 -48.5v259h91v-260q20 30 53.5 49.5
t76.5 19.5q56 0 92 -26t57 -66t29.5 -88t8.5 -93zM672 265q0 30 -4 64t-15.5 63t-33 48.5t-56.5 19.5q-34 0 -55 -19t-33 -48t-16 -63.5t-4 -64.5t3 -65t14 -64.5t32 -49t57 -19.5q35 0 56.5 18t33.5 46.5t16.5 64t4.5 69.5zM360 265q0 30 -4 64.5t-16 63.5t-33 48t-55 19
q-36 0 -57.5 -17t-33 -45t-15 -62.5t-3.5 -70.5q0 -28 4.5 -62.5t16.5 -64.5t33.5 -50.5t56.5 -20.5q36 0 57 19.5t32 49t14 64.5t3 65z" />
    <glyph glyph-name="afii10087" unicode="&#x445;" horiz-adv-x="475" 
d="M361 0l-128 212l-124 -212h-95l170 275l-155 253h100l113 -194l110 194h95l-155 -255l169 -273h-100z" />
    <glyph glyph-name="afii10088" unicode="&#x446;" horiz-adv-x="581" 
d="M466 -137v137h-393v528h92v-450h242v450h92v-450h51v-215h-84z" />
    <glyph glyph-name="afii10089" unicode="&#x447;" horiz-adv-x="548" 
d="M383 0v248q-34 -28 -86.5 -44.5t-110.5 -16.5q-71 0 -107 38.5t-36 126.5v176h92v-123q0 -38 2.5 -64.5t11.5 -44t26.5 -25.5t47.5 -8q21 0 44.5 5.5t45.5 14t40.5 19t29.5 21.5v205h92v-528h-92z" />
    <glyph glyph-name="afii10090" unicode="&#x448;" horiz-adv-x="799" 
d="M73 0v528h92v-450h189v450h92v-450h189v450h92v-528h-654z" />
    <glyph glyph-name="afii10091" unicode="&#x449;" horiz-adv-x="809" 
d="M73 0v528h92v-450h189v450h92v-450h189v450h92v-450h51v-215h-84v137h-621z" />
    <glyph glyph-name="afii10092" unicode="&#x44a;" horiz-adv-x="604" 
d="M576 167q0 -50 -20.5 -82t-54 -51t-76.5 -26.5t-88 -7.5h-166v450h-157l-8 78h257v-205q9 0 24 0.5t33 1t36 0.5h32q37 0 71.5 -6.5t60 -24t41 -48t15.5 -79.5zM370 254q-14 0 -32 -0.5t-35 -0.5q-19 -1 -40 -1v-180h91q24 0 46.5 4.5t40 15.5t28 28.5t10.5 43.5
q0 52 -29 71t-80 19z" />
    <glyph glyph-name="afii10093" unicode="&#x44b;" horiz-adv-x="724" 
d="M558 0v528h93v-528h-93zM478 167q0 -50 -20.5 -82t-54 -51t-76.5 -26.5t-88 -7.5h-166v528h92v-205q9 0 24 0.5t33 1t36 0.5h32q37 0 71.5 -6.5t60 -24t41 -48t15.5 -79.5zM272 254q-14 0 -32 -0.5t-35 -0.5q-19 -1 -40 -1v-180h91q24 0 46.5 4.5t40 15.5t28 28.5
t10.5 43.5q0 52 -29 71t-80 19z" />
    <glyph glyph-name="afii10094" unicode="&#x44c;" horiz-adv-x="506" 
d="M478 167q0 -50 -20.5 -82t-54 -51t-76.5 -26.5t-88 -7.5h-166v528h92v-205q9 0 24 0.5t33 1t36 0.5h32q37 0 71.5 -6.5t60 -24t41 -48t15.5 -79.5zM272 254q-14 0 -32 -0.5t-35 -0.5q-19 -1 -40 -1v-180h91q24 0 46.5 4.5t40 15.5t28 28.5t10.5 43.5q0 52 -29 71t-80 19z
" />
    <glyph glyph-name="afii10095" unicode="&#x44d;" horiz-adv-x="434" 
d="M40 96q25 -11 55.5 -19.5t60.5 -8.5q63 0 97.5 40.5t39.5 126.5h-174v63h173q-6 162 -126 162q-37 0 -66 -8t-51 -19l-25 70q25 12 61.5 23.5t87.5 11.5q103 0 159.5 -69t56.5 -206t-56 -205t-162 -68q-54 0 -92 11.5t-64 24.5z" />
    <glyph glyph-name="afii10096" unicode="&#x44e;" horiz-adv-x="794" 
d="M749 264q0 -141 -60 -207.5t-165 -66.5q-101 0 -159.5 59t-65.5 185h-134v-234h-92v528h92v-219h136q10 117 68 173t155 56q106 0 165.5 -67t59.5 -207zM651 264q0 99 -29 150t-98 51q-70 0 -99 -51t-29 -150q0 -100 29 -151t99 -51q69 0 98 51t29 151z" />
    <glyph glyph-name="afii10097" unicode="&#x44f;" horiz-adv-x="508" 
d="M37 0l163 225q-30 1 -56 12t-45.5 30t-30.5 46.5t-11 62.5q0 42 14 71t40.5 47t64.5 26t86 8h173v-528h-93v221h-47l-151 -221h-107zM153 376q0 -50 31 -69t98 -19h60v170h-58q-71 0 -101 -16t-30 -66z" />
    <glyph glyph-name="afii10071" unicode="&#x451;" horiz-adv-x="526" 
d="M481 268v-13t-1 -13h-338q0 -50 11.5 -83t31.5 -53.5t47 -29t58 -8.5q37 0 74.5 8.5t67.5 23.5l25 -69q-24 -14 -73 -27.5t-113 -13.5q-44 0 -84.5 13t-72 43.5t-50.5 81t-19 124.5t18 128t49 89t71.5 52t85.5 17q47 0 86 -17t67 -50.5t43.5 -84.5t15.5 -118zM383 305
q-2 45 -12 75t-26 49t-36.5 27t-43.5 8t-44.5 -9.5t-38.5 -29t-28 -49.5t-13 -71h242v0zM435 678q0 -26 -17 -42.5t-41 -16.5t-41 16.5t-17 42.5q0 24 17 41t41 17t41 -17t17 -41zM211 678q0 -26 -16.5 -42.5t-40.5 -16.5t-41 16.5t-17 42.5q0 24 17 41t41 17t40.5 -17
t16.5 -41z" />
    <glyph glyph-name="afii10099" unicode="&#x452;" horiz-adv-x="580" 
d="M512 -83q0 -28 -3.5 -52.5t-14 -43t-30.5 -29t-53 -10.5q-28 0 -45.5 4.5t-35.5 11.5l17 66q7 -2 16 -4.5t20 -2.5q27 0 31.5 21.5t4.5 54.5v381q0 38 -3 64t-12 42.5t-26 23.5t-45 7q-22 0 -45 -8.5t-45 -22t-41.5 -29.5t-34.5 -30v-361h-93v578h-67l-7 71h74v80h93v-80
h143l-10 -71h-133v-138q15 15 37.5 31.5t49 30.5t56 23t60.5 9q142 0 142 -166v-451v0z" />
    <glyph glyph-name="afii10100" unicode="&#x453;" horiz-adv-x="349" 
d="M329 450h-164v-450h-92v528h269zM173 604l-40 47l154 159l59 -70z" />
    <glyph glyph-name="afii10101" unicode="&#x454;" horiz-adv-x="434" 
d="M419 26q-26 -13 -64 -24.5t-92 -11.5q-106 0 -162 68t-56 205q0 136 59.5 205.5t160.5 69.5q51 0 85.5 -11.5t59.5 -23.5l-25 -70q-22 11 -50 19t-65 8q-122 0 -128 -162h173v-63h-174q5 -86 39.5 -126.5t97.5 -40.5q30 0 60.5 8.5t55.5 19.5z" />
    <glyph glyph-name="afii10102" unicode="&#x455;" horiz-adv-x="412" 
d="M380 140q0 -77 -51 -113.5t-137 -36.5q-50 0 -91 8t-70 21l14 69q23 -9 59 -17t69 -8q17 0 36 1.5t35 7.5t26.5 18.5t10.5 34.5q0 27 -18 47.5t-45 39t-58 36.5t-58 40t-45 49t-18 64q0 69 45.5 103t126.5 34q42 0 79 -6t66 -15l-13 -74q-20 7 -52.5 13.5t-67.5 6.5
q-17 0 -33.5 -2.5t-29 -9t-20.5 -17.5t-8 -27q0 -24 18.5 -43.5t46 -37.5t59.5 -36.5t59.5 -40t46 -48t18.5 -61.5z" />
    <glyph glyph-name="afii10103" unicode="&#x456;" horiz-adv-x="237" 
d="M178 684q-1 -25 -17.5 -42t-41.5 -17q-26 0 -43 17t-17 42t17 42.5t43 17.5q24 0 41.5 -17.5t17.5 -42.5zM72 0v528h93v-528h-93z" />
    <glyph glyph-name="afii10104" unicode="&#x457;" horiz-adv-x="237" 
d="M72 0v528h93v-528h-93zM290 678q0 -26 -17 -42.5t-41 -16.5t-41 16.5t-17 42.5q0 24 17 41t41 17t41 -17t17 -41zM66 678q0 -26 -16.5 -42.5t-40.5 -16.5t-41 16.5t-17 42.5q0 24 17 41t41 17t40.5 -17t16.5 -41z" />
    <glyph glyph-name="afii10105" unicode="&#x458;" horiz-adv-x="236" 
d="M177 684q0 -25 -17 -42t-42 -17q-26 0 -43 17t-17 42t17 42.5t43 17.5q24 0 41.5 -17.5t17.5 -42.5zM164 -83q0 -28 -3.5 -52.5t-14 -43t-30.5 -29t-53 -10.5q-28 0 -45.5 4.5t-35.5 11.5l17 66q7 -2 16 -4.5t20 -2.5q27 0 31.5 21.5t4.5 54.5v595h93v-611z" />
    <glyph glyph-name="afii10106" unicode="&#x459;" horiz-adv-x="832" 
d="M804 167q0 -50 -20.5 -82t-54 -51t-76.5 -26.5t-88 -7.5h-166v450h-188l-16 -318q-2 -36 -7.5 -62.5t-18 -44t-32.5 -26.5t-50 -9q-29 0 -47.5 5.5t-31.5 10.5l19 66q5 -2 14.5 -5t22.5 -3q23 0 32 18t11 58l20 388h364v-205q9 0 24 0.5t33 1t36 0.5h32q37 0 71.5 -6.5
t60 -24t41 -48t15.5 -79.5zM598 254q-14 0 -32 -0.5t-35 -0.5q-19 -1 -40 -1v-180h91q24 0 46.5 4.5t40 15.5t28 28.5t10.5 43.5q0 52 -29 71t-80 19z" />
    <glyph glyph-name="afii10107" unicode="&#x45a;" horiz-adv-x="832" 
d="M804 167q0 -50 -20.5 -82t-54 -51t-76.5 -26.5t-88 -7.5h-166v249h-234v-249h-92v528h92v-208h234v208h92v-205q9 0 24 0.5t33 1t36 0.5h32q37 0 71.5 -6.5t60 -24t41 -48t15.5 -79.5zM598 254q-14 0 -32 -0.5t-35 -0.5q-19 -1 -40 -1v-180h91q24 0 46.5 4.5t40 15.5
t28 28.5t10.5 43.5q0 52 -29 71t-80 19z" />
    <glyph glyph-name="afii10108" unicode="&#x45b;" horiz-adv-x="580" 
d="M0 649h74v80h93v-80h143l-10 -71h-133v-138q15 15 37.5 31.5t49 30.5t56 23t60.5 9q142 0 142 -166v-368h-93v314q0 38 -3 64t-12 42.5t-26 23.5t-45 7q-22 0 -45 -8.5t-45 -22t-41.5 -29.5t-34.5 -30v-361h-93v578h-67z" />
    <glyph glyph-name="afii10109" unicode="&#x45c;" horiz-adv-x="502" 
d="M393 0l-228 257v-257h-93v528h93v-215l212 215h113l-243 -238l265 -290h-119zM233 604l-40 47l154 159l59 -70z" />
    <glyph glyph-name="afii10110" unicode="&#x45e;" horiz-adv-x="481" 
d="M261 -70q-18 -52 -34 -81.5t-32.5 -44.5t-33.5 -18.5t-38 -3.5q-19 0 -34 4t-29 10l16 69q5 -2 15.5 -5t25.5 -3q20 0 34.5 21t30.5 68l12 35l-184 547h101l127 -440l135 440h96zM244 615q-75 0 -112 36t-37 105h62q0 -14 4.5 -27t14.5 -23t26.5 -16t41.5 -6
q50 0 68.5 21.5t19.5 50.5h62q-2 -68 -38.5 -104.5t-111.5 -36.5z" />
    <glyph glyph-name="afii10193" unicode="&#x45f;" horiz-adv-x="572" 
d="M328 0v-137h-84v137h-171v528h92v-451h242v451h92v-528h-171z" />
    <glyph glyph-name="afii10050" unicode="&#x490;" horiz-adv-x="433" 
d="M178 585v-585h-97v667h249v142h88v-224h-240z" />
    <glyph glyph-name="afii10098" unicode="&#x491;" horiz-adv-x="349" 
d="M165 450v-450h-92v528h181v129h84v-207h-173z" />
    <glyph glyph-name="endash" unicode="&#x2013;" horiz-adv-x="500" 
d="M43 262v78h413v-78h-413z" />
    <glyph glyph-name="emdash" unicode="&#x2014;" horiz-adv-x="1000" 
d="M122 262v78h755v-78h-755z" />
    <glyph glyph-name="uni2015" unicode="&#x2015;" horiz-adv-x="1000" 
d="M122 262v78h755v-78h-755z" />
    <glyph glyph-name="quoteleft" unicode="&#x2018;" horiz-adv-x="186" 
d="M34 591q0 17 8 36.5t20 40t26.5 41.5t28.5 41l35 -22q-10 -16 -22 -39t-12 -40q0 -9 3.5 -16t7.5 -14t7.5 -15.5t3.5 -20.5q0 -23 -16 -37t-36 -14q-25 0 -39.5 16.5t-14.5 42.5z" />
    <glyph glyph-name="quoteright" unicode="&#x2019;" horiz-adv-x="186" 
d="M152 689q0 -17 -8 -36.5t-20 -40t-26.5 -41.5t-28.5 -41l-35 22q10 16 22 39t12 40q0 9 -3.5 16t-7.5 14t-7.5 15.5t-3.5 20.5q0 23 16 37t36 14q25 0 39.5 -16.5t14.5 -42.5z" />
    <glyph glyph-name="quotesinglbase" unicode="&#x201a;" horiz-adv-x="186" 
d="M152 33q0 -17 -8 -36.5t-20 -40t-26.5 -41.5t-28.5 -41l-35 22q10 16 22 39t12 40q0 9 -3.5 16t-7.5 14t-7.5 15.5t-3.5 20.5q0 23 16 37t36 14q25 0 39.5 -16.5t14.5 -42.5z" />
    <glyph glyph-name="quotedblleft" unicode="&#x201c;" horiz-adv-x="333" 
d="M34 591q0 17 8 36.5t20 40t26.5 41.5t28.5 41l35 -22q-10 -16 -22 -39t-12 -40q0 -9 3.5 -16t7.5 -14t7.5 -15.5t3.5 -20.5q0 -23 -16 -37t-36 -14q-25 0 -39.5 16.5t-14.5 42.5zM181 591q0 17 8 36.5t20 40t26.5 41.5t28.5 41l35 -22q-10 -16 -22 -39t-12 -40
q0 -9 3.5 -16t7.5 -14t7.5 -15.5t3.5 -20.5q0 -23 -16 -37t-36 -14q-25 0 -39.5 16.5t-14.5 42.5z" />
    <glyph glyph-name="quotedblright" unicode="&#x201d;" horiz-adv-x="333" 
d="M152 689q0 -17 -8 -36.5t-20 -40t-26.5 -41.5t-28.5 -41l-35 22q10 16 22 39t12 40q0 9 -3.5 16t-7.5 14t-7.5 15.5t-3.5 20.5q0 23 16 37t36 14q25 0 39.5 -16.5t14.5 -42.5zM299 689q0 -17 -8 -36.5t-20 -40t-26.5 -41.5t-28.5 -41l-35 22q10 16 22 39t12 40
q0 9 -3.5 16t-7.5 14t-7.5 15.5t-3.5 20.5q0 23 16 37t36 14q25 0 39.5 -16.5t14.5 -42.5z" />
    <glyph glyph-name="quotedblbase" unicode="&#x201e;" horiz-adv-x="334" 
d="M152 33q0 -17 -8 -36.5t-20 -40t-26.5 -41.5t-28.5 -41l-35 22q10 16 22 39t12 40q0 9 -3.5 16t-7.5 14t-7.5 15.5t-3.5 20.5q0 23 16 37t36 14q25 0 39.5 -16.5t14.5 -42.5zM299 33q0 -17 -8 -36.5t-20 -40t-26.5 -41.5t-28.5 -41l-35 22q10 16 22 39t12 40q0 9 -3.5 16
t-7.5 14t-7.5 15.5t-3.5 20.5q0 23 16 37t36 14q25 0 39.5 -16.5t14.5 -42.5z" />
    <glyph glyph-name="dagger" unicode="&#x2020;" horiz-adv-x="493" 
d="M289 385v-530h-90v530h-157v78h157v204h90v-204h161v-78h-161z" />
    <glyph glyph-name="daggerdbl" unicode="&#x2021;" horiz-adv-x="493" 
d="M289 117v-262h-90v262h-157v78h157v193h-157v78h157v201h90v-201h161v-78h-161v-193h161v-78h-161z" />
    <glyph glyph-name="bullet" unicode="&#x2022;" horiz-adv-x="457" 
d="M387 345q0 -33 -12.5 -62t-34 -50.5t-50 -34t-61.5 -12.5t-62 12.5t-50.5 34t-34 50.5t-12.5 62t12.5 61.5t34 50t50.5 34t62 12.5t61.5 -12.5t50 -34t34 -50t12.5 -61.5z" />
    <glyph glyph-name="ellipsis" unicode="&#x2026;" horiz-adv-x="671" 
d="M617 52q0 -27 -18.5 -45t-44.5 -18q-27 0 -45.5 18t-18.5 45q0 26 18.5 44.5t45.5 18.5q26 0 44.5 -18.5t18.5 -44.5zM399 52q0 -27 -18.5 -45t-44.5 -18t-44.5 18t-18.5 45q0 26 18.5 44.5t44.5 18.5t44.5 -18.5t18.5 -44.5zM181 52q0 -27 -18.5 -45t-44.5 -18t-45 18
t-19 45q0 26 19 44.5t45 18.5t44.5 -18.5t18.5 -44.5z" />
    <glyph glyph-name="perthousand" unicode="&#x2030;" horiz-adv-x="1426" 
d="M971 222q0 -124 -40 -182t-136 -58t-135.5 58t-39.5 182q0 121 39.5 180t135.5 59t136 -59t40 -180zM398 449q0 -124 -39.5 -182.5t-135.5 -58.5t-135.5 58.5t-39.5 182.5q0 121 39.5 180t135.5 59t135.5 -59t39.5 -180zM886 222q0 40 -4 72.5t-14 55t-27.5 34.5
t-45.5 12t-45.5 -12t-27.5 -34.5t-14 -55t-4 -72.5q0 -42 4 -74.5t14 -55t27.5 -34.5t45.5 -12t45.5 12t27.5 34.5t14 55t4 74.5zM314 449q0 40 -4 72.5t-14 54.5t-27.5 34t-45.5 12t-45.5 -12t-28 -34t-14.5 -54.5t-4 -72.5q0 -42 4 -74.5t14.5 -55t28 -34.5t45.5 -12
t45.5 12t27.5 34.5t14 55t4 74.5zM362 -10h-85l380 690h84zM1378 222q0 -124 -40 -182t-136 -58t-135.5 58t-39.5 182q0 121 39.5 180t135.5 59t136 -59t40 -180zM1293 222q0 40 -4 72.5t-14 55t-27.5 34.5t-45.5 12t-45.5 -12t-27.5 -34.5t-14 -55t-4 -72.5q0 -42 4 -74.5
t14 -55t27.5 -34.5t45.5 -12t45.5 12t27.5 34.5t14 55t4 74.5z" />
    <glyph glyph-name="guilsinglleft" unicode="&#x2039;" horiz-adv-x="323" 
d="M219 86l-169 201l169 200l49 -42l-124 -158l124 -159z" />
    <glyph glyph-name="guilsinglright" unicode="&#x203a;" horiz-adv-x="323" 
d="M104 86l-48 42l122 158l-123 159l49 42l169 -200z" />
    <glyph glyph-name="fraction" unicode="&#x2044;" horiz-adv-x="556" 
d="M131 -10h-85l380 690h84z" />
    <glyph glyph-name="fraction" unicode="&#x2215;" horiz-adv-x="556" 
d="M131 -10h-85l380 690h84z" />
    <glyph glyph-name="Euro" unicode="&#x20ac;" 
d="M504 25q-23 -11 -63 -23.5t-94 -12.5q-102 0 -159 66.5t-68 191.5h-76l14 53h59q-1 11 -1 16.5v17.5v16t1 15h-73l15 53h61q11 127 69.5 193.5t162.5 66.5q48 0 86.5 -11.5t64.5 -22.5l-26 -73q-23 10 -51 19t-72 9q-60 0 -93.5 -48t-41.5 -133h213l-14 -53h-203
q-1 -10 -1 -15v-16v-17.5t1 -16.5h190l-13 -53h-173q7 -85 39.5 -132t101.5 -47q40 0 69 9.5t52 19.5z" />
    <glyph glyph-name="afii61352" unicode="&#x2116;" horiz-adv-x="947" 
d="M638 191v64h272v-64h-272zM919 499q0 -49 -10.5 -83t-29.5 -55.5t-46 -31.5t-60 -10t-60 10t-45.5 31.5t-29 55.5t-10.5 83q0 97 39.5 138.5t105.5 41.5q67 0 106.5 -41.5t39.5 -138.5zM845 499q0 60 -17 92t-55 32q-37 0 -53 -32t-16 -92t16 -92t53 -32q38 0 55 32
t17 92zM428 0l-258 518v-518h-89v667h103l259 -521v521h89v-667h-104z" />
    <glyph glyph-name="trademark" unicode="&#x2122;" horiz-adv-x="884" 
d="M759 269l-30 326h-4l-86 -240h-59l-87 240h-3l-30 -326h-75l46 460h78l100 -271h4l101 271h78l47 -460h-80zM358 662h-114v-393h-77v393h-112l-10 67h322z" />
    <glyph glyph-name="Ohm" unicode="&#x2126;" horiz-adv-x="634" 
d="M478 374q0 31 -6 70.5t-23.5 74t-49 58t-82.5 23.5t-82.5 -23t-49.5 -57.5t-24 -73.5t-6 -70q0 -51 10.5 -96.5t28.5 -83t42 -67.5t50 -50v-79h-229v81h134q-26 21 -50.5 51t-43 68t-30 82.5t-11.5 93.5q0 51 11.5 104.5t41 98t80 72.5t128.5 28t128.5 -28t80 -72
t41 -97.5t11.5 -103.5q0 -49 -12 -93.5t-31.5 -83t-44.5 -69t-51 -51.5h138v-81h-229v79q26 20 49.5 50t41.5 67.5t28.5 82.5t10.5 95z" />
    <glyph glyph-name="uni2206" unicode="&#x2206;" horiz-adv-x="569" 
d="M16 0l215 667h108l214 -667h-537zM283 547l-145 -470h288z" />
    <glyph glyph-name="product" unicode="&#x220f;" horiz-adv-x="759" 
d="M580 -208v794h-402v-794h-97v875h596v-875h-97z" />
    <glyph glyph-name="summation" unicode="&#x2211;" horiz-adv-x="612" 
d="M55 -208v75l203 375l-199 350v75h514l-15 -82h-395l198 -341l-205 -370h413l15 -82h-529z" />
    <glyph glyph-name="minus" unicode="&#x2212;" 
d="M70 301v77h410v-77h-410z" />
    <glyph glyph-name="radical" unicode="&#x221a;" horiz-adv-x="660" 
d="M361 93l233 729h95l-279 -822h-100l-153 450h-158v78h229z" />
    <glyph glyph-name="infinity" unicode="&#x221e;" horiz-adv-x="562" 
d="M97 331q0 -23 15 -38t38 -15q16 0 32 8t29 18q15 11 28 27q-13 15 -28 27q-13 10 -29 18.5t-32 8.5q-23 0 -38 -15.5t-15 -38.5zM322 331q13 -16 28 -27q13 -10 28.5 -18t32.5 -8q23 0 38 15t15 38t-15 38.5t-38 15.5q-16 0 -31.5 -8t-28 -18t-20.5 -18.5t-9 -9.5z
M19 330q0 26 11 48.5t29 39t41.5 25.5t48.5 9q31 0 56.5 -11t43.5 -25q21 -16 37 -36q18 20 39 36q18 14 42.5 25t53.5 11q25 0 47.5 -9t39 -25t26 -38t9.5 -48t-10.5 -48.5t-28.5 -39t-41.5 -25.5t-48.5 -9q-32 0 -57.5 11t-43.5 25q-21 16 -37 36q-18 -20 -39 -36
q-18 -14 -42.5 -25t-52.5 -11q-25 0 -47.5 9t-39 25t-26.5 38t-10 48z" />
    <glyph glyph-name="integral" unicode="&#x222b;" horiz-adv-x="558" 
d="M514 731l-10 -36l-10 -36q-11 2 -25 5t-28 3q-33 0 -46 -20t-20 -59q-3 -14 -5 -26.5t-4 -26.5q-3 -17 -5 -34t-5 -34q-20 -120 -38 -238.5t-38 -239.5q-4 -24 -8.5 -47t-10.5 -46q-10 -40 -32.5 -68t-63.5 -38q-23 -6 -47 -6q-28 0 -48 4t-31 6q5 17 10 34.5t10 34.5
q10 -2 24 -5t28 -3q32 0 45.5 20t19.5 59q2 16 9 59t16 99t19 118.5t19 118.5t15.5 98.5t9.5 59.5l4 26l4 26q4 23 9 45.5t10 43.5q13 49 44 81.5t93 32.5h8t7 -1q25 -1 42.5 -4.5t28.5 -5.5z" />
    <glyph glyph-name="approxequal" unicode="&#x2248;" horiz-adv-x="562" 
d="M499 266q-36 -48 -68 -74t-73 -26q-23 0 -45.5 8.5t-46.5 22.5t-41.5 22t-32.5 8q-19 0 -37.5 -15t-41.5 -44l-51 38q36 48 68 73.5t73 25.5q22 0 44.5 -8t46.5 -22t42 -22t32 -8q20 0 38.5 15t41.5 44zM499 471q-36 -48 -68 -74t-73 -26q-23 0 -45.5 8.5t-46.5 22.5
t-41.5 22t-32.5 8q-19 0 -37.5 -15t-41.5 -44l-51 38q36 48 68 73.5t73 25.5q22 0 44.5 -8t46.5 -22t42 -22t32 -8q20 0 38.5 15t41.5 44z" />
    <glyph glyph-name="notequal" unicode="&#x2260;" 
d="M367 474h114v-74h-141l-44 -121h185v-74h-211l-44 -120h-81l44 120h-121v74h147l45 121h-192v74h217l38 103h81z" />
    <glyph glyph-name="lessequal" unicode="&#x2264;" horiz-adv-x="562" 
d="M75 328v66l411 183v-81l-301 -135l301 -137v-80zM75 28v75h411v-75h-411z" />
    <glyph glyph-name="greaterequal" unicode="&#x2265;" horiz-adv-x="562" 
d="M75 144v80l301 137l-301 135v81l411 -184v-65zM75 28v75h411v-75h-411z" />
    <glyph glyph-name="lozenge" unicode="&#x25ca;" horiz-adv-x="530" 
d="M39 331l188 336h78l185 -332l-188 -335h-78zM264 84l137 247l-137 250l-137 -246z" />
    <glyph glyph-name="uniE000" unicode="&#xe000;" horiz-adv-x="558" 
d="M510 334q0 -176 -56.5 -260.5t-174.5 -84.5t-174.5 84.5t-56.5 260.5t56.5 260t174.5 84t174.5 -84t56.5 -260zM412 334q0 63 -6.5 113t-22 85t-41 53.5t-63.5 18.5t-63.5 -18.5t-41 -53.5t-22 -85t-6.5 -113t6.5 -113.5t22 -86t41 -54t63.5 -18.5t63.5 18.5t41 53.5
t22 85.5t6.5 114.5z" />
    <glyph glyph-name="uniE001" unicode="&#xe001;" horiz-adv-x="332" 
d="M160 0v552l-119 -88l-46 64l188 139h72v-667h-95z" />
    <glyph glyph-name="uniE002" unicode="&#xe002;" horiz-adv-x="455" 
d="M10 0v72q38 40 88.5 87.5t96.5 101t77.5 112t31.5 118.5q0 54 -31 80t-85 26q-21 0 -41 -4.5t-39 -11.5t-35 -15t-28 -15l-31 70q16 10 37.5 20t46 18.5t51 13.5t53.5 5q91 0 145.5 -42.5t54.5 -127.5q0 -63 -28 -123t-70.5 -114t-91.5 -101.5t-91 -86.5h286v-83h-397z
" />
    <glyph glyph-name="uniE003" unicode="&#xe003;" horiz-adv-x="479" 
d="M429 186q0 -50 -17 -87t-47.5 -61.5t-72 -36.5t-89.5 -12q-67 0 -114 13t-88 38l30 72q37 -23 76 -33.5t88 -10.5q30 0 55 6t42.5 20t27.5 37t10 57q0 40 -15.5 64t-41 36t-57.5 15.5t-66 3.5v72q34 0 64 5.5t52.5 20t36 38.5t13.5 60q0 29 -10 47.5t-26.5 29t-38.5 14.5
t-45 4q-38 0 -79 -13.5t-67 -31.5l-29 70q35 23 85 39t107 16q45 0 82 -11t64 -32t41.5 -52.5t14.5 -72.5q0 -65 -34 -106t-87 -58q63 -11 99 -53.5t36 -106.5z" />
    <glyph glyph-name="uniE004" unicode="&#xe004;" horiz-adv-x="508" 
d="M420 105v-105h-94v105h-298l-5 60l231 521l82 -41l-211 -465h202v159h93v-160h82v-74h-82z" />
    <glyph glyph-name="uniE005" unicode="&#xe005;" horiz-adv-x="506" 
d="M464 215q0 -61 -18.5 -104t-50 -70t-74 -39.5t-90.5 -12.5q-63 0 -115.5 14.5t-84.5 36.5l30 72q32 -21 73.5 -32.5t84.5 -11.5q29 0 55.5 6t46.5 22t32 44t12 73q0 31 -8 57.5t-25 46t-42.5 31t-60.5 11.5q-27 0 -47.5 -5.5t-35.5 -13t-24.5 -16t-13.5 -13.5l-53 17
l37 339h84h255l-13 -82h-252l-22 -181q21 15 51 23.5t67 8.5q42 0 78.5 -13.5t64 -41.5t43.5 -69.5t16 -96.5z" />
    <glyph glyph-name="uniE006" unicode="&#xe006;" horiz-adv-x="526" 
d="M489 216q0 -55 -17.5 -97.5t-47.5 -71t-69.5 -43.5t-83.5 -15t-84.5 13t-72.5 44t-51 82t-19 127q0 73 24 139t66.5 121.5t100.5 98t126 68.5l32 -67q-30 -12 -63.5 -33t-65.5 -49.5t-59.5 -65t-45.5 -79.5q7 6 18 15t27 16.5t36 13t45 5.5q44 0 81.5 -15.5t64.5 -44.5
t42.5 -70t15.5 -92zM391 216q0 78 -33.5 114.5t-88.5 36.5q-56 0 -91.5 -36.5t-35.5 -114.5q0 -77 36.5 -114.5t92.5 -37.5t88 37t32 115z" />
    <glyph glyph-name="uniE007" unicode="&#xe007;" horiz-adv-x="437" 
d="M150 0h-107l275 585h-307l-13 82h422v-74z" />
    <glyph glyph-name="uniE008" unicode="&#xe008;" horiz-adv-x="545" 
d="M497 172q0 -42 -16.5 -76t-46.5 -58t-71.5 -36.5t-92.5 -12.5q-104 0 -165 47.5t-61 135.5q0 39 13 68t33 50.5t44.5 36t48.5 23.5q-22 10 -43 23.5t-37.5 32t-26.5 44t-10 60.5q0 40 16.5 71t44.5 52.5t65 33t78 11.5q42 0 79 -10t65 -30t44.5 -51.5t16.5 -73.5
q0 -32 -10 -57.5t-26 -45.5t-36 -35t-40 -26q22 -9 46 -22.5t43.5 -34t32 -50t12.5 -70.5zM380 511q0 46 -30.5 69.5t-79.5 23.5t-78 -23.5t-29 -68.5q0 -50 34.5 -81t82.5 -46q13 6 30.5 16.5t33 25.5t26 36t10.5 48zM399 169q0 35 -14.5 59t-35.5 40.5t-45 27t-44 16.5
q-19 -7 -40 -18t-38.5 -28t-29 -41t-11.5 -56q0 -54 36 -80.5t93 -26.5t93 27t36 80z" />
    <glyph glyph-name="uniE009" unicode="&#xe009;" horiz-adv-x="528" 
d="M477 411q0 -73 -24 -139t-66.5 -121.5t-100.5 -98t-126 -67.5l-32 67q30 12 63.5 33t65.5 49.5t59.5 64.5t45.5 79l-17.5 -15t-25.5 -16.5t-35 -13t-44 -5.5q-44 0 -82 15.5t-66 44.5t-44 70t-16 92q0 55 17.5 97.5t47.5 71.5t69.5 44t83.5 15q43 0 84 -13t73 -44
t51 -82.5t19 -127.5zM379 450q0 39 -10 67.5t-27 47t-40.5 28t-51.5 9.5q-56 0 -88 -37t-32 -115t34.5 -114.5t89.5 -36.5q56 0 90.5 36.5t34.5 114.5z" />
    <glyph glyph-name="uniE00A" unicode="&#xe00a;" horiz-adv-x="347" 
d="M314 348q0 -72 -46.5 -105.5t-118.5 -33.5q-51 0 -86 9t-63 24l26 61q49 -26 108 -26q39 0 64.5 15.5t25.5 59.5q0 24 -9 38.5t-25.5 22.5t-39 11t-50.5 3v60q65 2 89.5 18.5t24.5 59.5q0 18 -7 29.5t-18 17.5t-25 8.5t-28 2.5q-24 0 -51 -7.5t-47 -19.5l-24 60
q24 14 60.5 24.5t80.5 10.5q67 0 108 -29t41 -89q0 -47 -23 -74.5t-57 -38.5q41 -8 65.5 -36t24.5 -76z" />
    <glyph glyph-name="uniE00B" unicode="&#xe00b;" horiz-adv-x="390" 
d="M361 340q0 -64 -46 -97.5t-122 -33.5q-75 0 -119.5 33t-44.5 98q0 45 24 74.5t67 47.5q-38 18 -57.5 44.5t-19.5 64.5q0 31 12 53.5t33 37.5t49 22t59 7t58.5 -7t48.5 -21t33 -36.5t12 -54.5q0 -38 -20.5 -65t-55.5 -46q41 -19 65 -47t24 -74zM261 571q0 29 -18.5 44
t-47.5 15t-46 -14.5t-17 -43.5q0 -32 20 -51t52 -30q21 11 39 29.5t18 50.5zM270 337q0 38 -23.5 58.5t-61.5 33.5q-33 -14 -51 -35.5t-18 -56.5q0 -34 21.5 -51t56.5 -17t55.5 17.5t20.5 50.5z" />
    <glyph glyph-name="uniE00C" unicode="&#xe00c;" horiz-adv-x="377" 
d="M348 502q0 -50 -17.5 -95.5t-49 -84.5t-74 -69t-93.5 -50l-29 59q20 8 41.5 21t42 30t39 39t30.5 48q-10 -7 -27 -15.5t-49 -8.5q-30 0 -56 11t-45 31.5t-30 49t-11 62.5q0 39 13 69.5t35 50.5t51.5 30.5t61.5 10.5t62.5 -9t53.5 -31t37 -58.5t14 -90.5zM258 530
q0 50 -22 75t-55 25q-32 0 -51 -25t-19 -75q0 -52 20.5 -73.5t53.5 -21.5q32 0 52.5 22t20.5 73z" />
    <glyph glyph-name="uniE00D" unicode="&#xe00d;" horiz-adv-x="396" 
d="M367 450q0 -130 -41.5 -185.5t-127.5 -55.5q-85 0 -127 55.5t-42 185.5q0 129 42 185t127 56q86 0 127.5 -56t41.5 -185zM277 450q0 88 -16 134t-63 46t-63 -46t-16 -134t16 -134.5t63 -46.5t63 46.5t16 134.5z" />
    <glyph glyph-name="uniE00E" unicode="&#xe00e;" horiz-adv-x="248" 
d="M112 217v368l-79 -57l-38 54l140 101h65v-466h-88z" />
    <glyph glyph-name="uniE00F" unicode="&#xe00f;" horiz-adv-x="370" 
d="M319 283v-68h-86v68h-214l-4 55l154 358l76 -38l-138 -308h128v101h84v-102h48v-66h-48z" />
    <glyph glyph-name="uniE010" unicode="&#xe010;" horiz-adv-x="363" 
d="M335 366q0 -42 -13 -72t-36.5 -49t-54.5 -27.5t-67 -8.5q-48 0 -84.5 9.5t-59.5 23.5l24 63q22 -13 50 -21t56 -8q19 0 36 3.5t30 13.5t21 27.5t8 44.5q0 47 -24 70t-61 23q-28 0 -48.5 -9t-31.5 -21l-44 13l27 242h251l-11 -69h-174l-12 -112q14 9 32 14.5t42 5.5
q31 0 57 -9.5t45.5 -29t30.5 -49t11 -68.5z" />
    <glyph glyph-name="uniE011" unicode="&#xe011;" horiz-adv-x="320" 
d="M121 217h-96l188 397h-205l-10 69h309v-61z" />
    <glyph glyph-name="uniE012" unicode="&#xe012;" horiz-adv-x="326" 
d="M7 217v59q26 28 60 60.5t64 68t51 72.5t21 75q0 32 -20 49.5t-54 17.5q-27 0 -53.5 -8.5t-42.5 -18.5l-25 60q23 13 59.5 26t78.5 13q69 0 108.5 -31t39.5 -92q0 -42 -16 -79.5t-42.5 -71.5t-59 -65.5t-65.5 -62.5h189v-72h-293z" />
    <glyph glyph-name="uniE013" unicode="&#xe013;" horiz-adv-x="378" 
d="M355 370q0 -40 -13 -70t-35 -50t-51 -30.5t-62 -10.5q-32 0 -62 9t-53.5 31t-37.5 58t-14 90q0 50 17.5 96t49 84.5t74.5 69t93 49.5l29 -58q-19 -8 -41 -21t-42.5 -30.5t-39 -39.5t-30.5 -48q10 7 28 15.5t48 8.5q28 0 54 -10.5t45.5 -30t31 -48t11.5 -64.5zM263 370
q0 51 -19 73t-52 22q-32 0 -53.5 -23.5t-21.5 -71.5q0 -51 22 -76t55 -25q32 0 50.5 25t18.5 76z" />
    <glyph glyph-name="uniE014" unicode="&#xe014;" horiz-adv-x="347" 
d="M314 131q0 -72 -46.5 -105.5t-118.5 -33.5q-51 0 -86 9t-63 25l26 60q49 -26 108 -26q39 0 64.5 15.5t25.5 59.5q0 24 -9 38.5t-25.5 23t-39 11t-50.5 2.5v60q65 2 89.5 19t24.5 59q0 18 -7 29.5t-18 18t-25 9t-28 2.5q-24 0 -51 -8t-47 -19l-24 59q24 14 60.5 24.5
t80.5 10.5q67 0 108 -29t41 -89q0 -47 -23 -74t-57 -39q41 -8 65.5 -36t24.5 -76z" />
    <glyph glyph-name="uniE015" unicode="&#xe015;" horiz-adv-x="390" 
d="M361 123q0 -64 -46 -97.5t-122 -33.5q-75 0 -119.5 33t-44.5 98q0 45 24 74.5t67 47.5q-38 19 -57.5 45t-19.5 64q0 31 12 53.5t33 37.5t49 22t59 7t58.5 -7t48.5 -21t33 -36.5t12 -54.5q0 -38 -20.5 -64.5t-55.5 -46.5q41 -18 65 -46.5t24 -74.5zM261 354
q0 29 -18.5 44.5t-47.5 15.5t-46 -15t-17 -44q0 -32 20 -51t52 -30q21 11 39 30t18 50zM270 121q0 38 -23.5 58.5t-61.5 32.5q-33 -14 -51 -35t-18 -56t21.5 -52t56.5 -17t55.5 17.5t20.5 51.5z" />
    <glyph glyph-name="uniE016" unicode="&#xe016;" horiz-adv-x="377" 
d="M348 285q0 -50 -17.5 -95.5t-49 -84.5t-74 -69t-93.5 -50l-29 59q20 8 41.5 21t42 30t39 39t30.5 48q-10 -7 -27 -15.5t-49 -8.5q-30 0 -56 11t-45 31.5t-30 49t-11 62.5q0 39 13 69.5t35 50.5t51.5 30.5t61.5 10.5t62.5 -9t53.5 -31t37 -58.5t14 -90.5zM258 313
q0 50 -22 75t-55 25q-32 0 -51 -25t-19 -75q0 -52 20.5 -73.5t53.5 -21.5q32 0 52.5 22t20.5 73z" />
    <glyph glyph-name="uniE017" unicode="&#xe017;" horiz-adv-x="396" 
d="M367 233q0 -129 -41.5 -185t-127.5 -56q-85 0 -127 56t-42 185t42 185t127 56q86 0 127.5 -56t41.5 -185zM277 233q0 87 -16 134t-63 47q-46 0 -62.5 -47t-16.5 -134q0 -88 16 -134.5t63 -46.5t63 46.5t16 134.5z" />
    <glyph glyph-name="uniE018" unicode="&#xe018;" horiz-adv-x="248" 
d="M112 0v369l-79 -58l-38 54l140 101h65v-466h-88z" />
    <glyph glyph-name="uniE019" unicode="&#xe019;" horiz-adv-x="370" 
d="M319 67v-69h-86v69h-214l-4 54l154 358l76 -37l-138 -309h128v101h84v-102h48v-65h-48z" />
    <glyph glyph-name="uniE01A" unicode="&#xe01a;" horiz-adv-x="363" 
d="M335 149q0 -42 -13 -72t-36.5 -49t-54.5 -27.5t-67 -8.5q-48 0 -84.5 10t-59.5 24l24 62q22 -13 50 -21t56 -8q19 0 36 3.5t30 13.5t21 27.5t8 45.5q0 46 -24 69.5t-61 23.5q-28 0 -48.5 -9.5t-31.5 -21.5l-44 14l27 241h251l-11 -68h-174l-12 -113q14 9 32 14.5t42 5.5
q31 0 57 -9.5t45.5 -29t30.5 -49t11 -68.5z" />
    <glyph glyph-name="uniE01B" unicode="&#xe01b;" horiz-adv-x="320" 
d="M121 0h-96l188 398h-205l-10 68h309v-61z" />
    <glyph glyph-name="uniE01C" unicode="&#xe01c;" horiz-adv-x="326" 
d="M7 0v59q26 28 60 60.5t64 68t51 73t21 74.5q0 32 -20 49.5t-54 17.5q-27 0 -53.5 -8.5t-42.5 -18.5l-25 60q23 13 59.5 26t78.5 13q69 0 108.5 -31t39.5 -92q0 -42 -16 -79.5t-42.5 -71.5t-59 -65.5t-65.5 -62.5h189v-72h-293z" />
    <glyph glyph-name="uniE01D" unicode="&#xe01d;" horiz-adv-x="378" 
d="M355 153q0 -40 -13 -70t-35 -50t-51 -30.5t-62 -10.5q-32 0 -62 9t-53.5 31t-37.5 58t-14 90q0 50 17.5 96t49 84.5t74.5 69t93 49.5l29 -58q-19 -8 -41 -21t-42.5 -30.5t-39 -39.5t-30.5 -48q10 7 28 15.5t48 8.5q28 0 54 -10.5t45.5 -30t31 -48t11.5 -64.5zM263 153
q0 51 -19 73t-52 22q-32 0 -53.5 -23.5t-21.5 -71.5q0 -51 22 -76t55 -25q32 0 50.5 25t18.5 76z" />
    <glyph glyph-name="uniE01E" unicode="&#xe01e;" horiz-adv-x="580" 
d="M478 378l-146 148v-526h-84v526l-145 -148l-57 56l245 244l244 -244z" />
    <glyph glyph-name="uniE01F" unicode="&#xe01f;" horiz-adv-x="750" 
d="M196 304l150 -148l-58 -57l-243 246l243 245l58 -58l-150 -148h503v-80h-503z" />
    <glyph glyph-name="uniE020" unicode="&#xe020;" horiz-adv-x="750" 
d="M462 98l-58 58l150 148h-503v80h503l-150 148l58 57l243 -246z" />
    <glyph glyph-name="uniE021" unicode="&#xe021;" horiz-adv-x="580" 
d="M290 -11l-244 244l57 56l146 -148v526h83v-526l146 148l57 -56z" />
    <glyph glyph-name="uniE022" unicode="&#xe022;" horiz-adv-x="562" 
d="M434 126l-153 152l-152 -152l-57 58l152 152l-152 152l57 58l152 -152l153 152l57 -58l-153 -152l153 -152z" />
    <glyph glyph-name="uniE023" unicode="&#xe023;" horiz-adv-x="562" 
d="M323 302v-190h-85v190h-185v75h185v190h85v-190h185v-75h-185z" />
    <glyph glyph-name="uniE024" unicode="&#xe024;" horiz-adv-x="562" 
d="M409 130v172h-346v76h431v-248h-85z" />
    <glyph glyph-name="uniE025" unicode="&#xe025;" horiz-adv-x="562" 
d="M322 326v-166h-83v166h-164v75h164v166h83v-166h164v-75h-164zM75 28v75h411v-75h-411z" />
    <glyph glyph-name="uniE026" unicode="&#xe026;" horiz-adv-x="562" 
d="M342 514q0 -26 -18 -44t-44 -18t-44.5 18t-18.5 44t18.5 44.5t44.5 18.5t44 -18.5t18 -44.5zM66 302v75h430v-75h-430zM342 164q0 -26 -18 -44t-44 -18t-44.5 18t-18.5 44t18.5 44.5t44.5 18.5t44 -18.5t18 -44.5z" />
    <glyph glyph-name="uniE027" unicode="&#xe027;" horiz-adv-x="651" 
d="M596 275q0 -56 -21 -105.5t-58 -86.5t-86.5 -58.5t-105.5 -21.5q-38 0 -73 10t-66 29l-57 -69l-57 45l56 70q-35 36 -54.5 84t-19.5 103q0 56 21.5 105t58 86t86 58t105.5 21q38 0 73.5 -10t66.5 -29l57 70l57 -46l-57 -70q35 -37 54.5 -84t19.5 -101zM514 275
q0 34 -12 64.5t-33 54.5l-230 -286q39 -22 86 -22q39 0 73.5 15t60 40.5t40.5 60t15 73.5zM413 440q-40 23 -88 23q-39 0 -73 -14.5t-59.5 -40t-40.5 -60t-15 -73.5q0 -73 45 -121z" />
    <glyph glyph-name="uniE028" unicode="&#xe028;" horiz-adv-x="515" 
d="M91 267v79h377v-79h-377zM178 43q0 -20 -9 -41.5t-23 -44.5q-6 -11 -16 -26t-20 -29q-11 -17 -24 -34l-41 26q11 17 23.5 41.5t12.5 43.5q0 10 -3 17.5t-7 14.5q-5 8 -8.5 18t-3.5 24q0 26 17 42t40 16q29 0 45.5 -19t16.5 -49z" />
    <glyph glyph-name="uniE029" unicode="&#xe029;" horiz-adv-x="515" 
d="M48 267v79h376v-79h-376zM466 43q0 -20 -9 -41.5t-23 -44.5q-6 -11 -16 -26t-20 -29q-11 -17 -24 -34l-41 26q11 17 23.5 41.5t12.5 43.5q0 10 -3 17.5t-7 14.5q-5 8 -8.5 18t-3.5 24q0 26 17 42t40 16q29 0 45.5 -19t16.5 -49z" />
    <glyph glyph-name="uniE02A" unicode="&#xe02a;" horiz-adv-x="513" 
d="M468 196q0 -85 -46.5 -129t-126.5 -55v-82h-78v78q-54 2 -98 10.5t-77 21.5l18 75q29 -11 73 -20t89 -9q30 0 55.5 5t44.5 16t29.5 29.5t10.5 45.5q0 30 -23 52t-58 40.5t-75 37t-75 42t-58 55.5t-23 78q0 74 44.5 117t122.5 50v74h78v-71q41 -2 77.5 -8.5t65.5 -14.5
l-17 -77q-26 8 -64 15t-84 7q-35 0 -58 -7t-36.5 -18.5t-19.5 -26.5t-6 -31q0 -32 23.5 -55.5t58.5 -42.5t75.5 -37.5t75.5 -41t58.5 -52t23.5 -71.5z" />
    <glyph glyph-name="uniE02B" unicode="&#xe02b;" horiz-adv-x="514" 
d="M486 25q-23 -11 -63 -23.5t-94 -12.5q-102 0 -159 66.5t-68 191.5h-76l14 53h59q-1 11 -1 16.5v17.5v16t1 15h-73l15 53h61q11 127 69.5 193.5t162.5 66.5q48 0 86.5 -11.5t64.5 -22.5l-26 -73q-23 10 -51 19t-72 9q-60 0 -93.5 -48t-41.5 -133h213l-14 -53h-203
q-1 -10 -1 -15v-16v-17.5t1 -16.5h190l-13 -53h-173q7 -85 39.5 -132t101.5 -47q40 0 69 9.5t52 19.5z" />
    <glyph glyph-name="uniE02C" unicode="&#xe02c;" horiz-adv-x="430" 
d="M417 120q-22 -11 -54 -21t-74 -14v-85h-76v86q-85 11 -130 71.5t-45 176.5t45 176t130 71v86h76v-85q39 -3 69 -12.5t50 -20.5l-25 -65q-21 10 -50.5 19t-64.5 9q-70 0 -101 -43t-31 -135q0 -89 30 -132t101 -43q35 0 68.5 8t57.5 19z" />
    <glyph glyph-name="uniE02D" unicode="&#xe02d;" horiz-adv-x="536" 
d="M86 0v65q36 35 47.5 77.5t11.5 90.5q0 21 -2 40t-4 37h-75v68h66q-4 29 -7 62t-3 65q0 86 51 129.5t145 43.5q67 0 113.5 -14.5t76.5 -30.5l-27 -71q-28 13 -64.5 25t-87.5 12t-80.5 -23.5t-29.5 -81.5q0 -31 2.5 -60t5.5 -56h162v-68h-153q2 -20 4 -41t2 -42
q0 -42 -9 -79t-35 -72h311v-76h-421z" />
    <glyph glyph-name="uniE02E" unicode="&#xe02e;" horiz-adv-x="554" 
d="M386 393h102v-54h-130l-27 -50l-4 -15h161v-53h-163v-221h-96v221h-163v53h161l-3 15l-27 50h-131v54h102l-145 274h107l150 -311l149 311h102z" />
    <glyph glyph-name="uniE02F" unicode="&#xe02f;" horiz-adv-x="562" 
d="M503 660q-10 2 -24.5 5t-28.5 3q-33 0 -46 -19t-20 -58l-11 -63h102l-13 -70h-99l-77 -484q-6 -41 -15 -76t-27 -60.5t-47.5 -40t-77.5 -14.5q-25 0 -42 4t-29 7l19 70q10 -2 24.5 -5t28.5 -3q32 0 45.5 19.5t19.5 58.5l84 524h-67l-6 70h83l14 83q11 63 46.5 97t99.5 34
q29 0 49 -3.5t34 -7.5z" />
    <glyph glyph-name="uniE030" unicode="&#xe030;" horiz-adv-x="811" 
d="M751 333q0 -72 -27 -134.5t-74 -109.5t-109.5 -74t-134.5 -27t-135 27t-110 74t-74 109.5t-27 134.5t27 135t74 110t110 74t135 27t134.5 -27t109.5 -74t74 -110t27 -135zM682 333q0 57 -21.5 107.5t-59 88t-88 59.5t-107.5 22q-58 0 -108.5 -22t-88 -59.5t-59.5 -88
t-22 -107.5q0 -58 22 -108.5t59.5 -88t88 -59t108.5 -21.5q57 0 107.5 21.5t88 59t59 88t21.5 108.5zM480 144l-107 160h-26v-160h-70v384h115q73 0 113.5 -25t40.5 -87q0 -23 -9.5 -42t-24 -33t-32.5 -22t-36 -10l122 -165h-86zM473 415q0 29 -17.5 42.5t-59.5 13.5h-49
v-118h48q42 0 60 15.5t18 46.5z" />
    <glyph glyph-name="uniE031" unicode="&#xe031;" horiz-adv-x="668" 
d="M601 515q0 -55 -21 -103.5t-57 -85t-84.5 -57.5t-103.5 -21t-104 21t-85.5 57.5t-57.5 85t-21 103.5t21 103.5t57.5 85t85.5 57.5t104 21t103.5 -21t84.5 -57.5t57 -85t21 -103.5zM545 515q0 44 -16.5 82t-45 67t-66.5 45.5t-82 16.5t-83 -16.5t-68 -45.5t-45.5 -67
t-16.5 -82t16.5 -82.5t45.5 -67.5t68 -45.5t83 -16.5t82 16.5t66.5 45.5t45 67.5t16.5 82.5zM349 418q17 0 31.5 4t27.5 9l17 -42q-17 -8 -35.5 -13.5t-47.5 -5.5q-58 0 -90.5 36t-32.5 111t32.5 112t89.5 37q26 0 44.5 -5.5t35.5 -13.5l-16 -44q-11 5 -25.5 10t-30.5 5
q-38 0 -54 -24.5t-16 -76.5q0 -51 16.5 -75t53.5 -24z" />
    <glyph glyph-name="uni0162" unicode="&#xe032;" horiz-adv-x="450" 
d="M427 585h-155v-585h-34l-14 -46q2 1 6.5 1h8.5q37 0 64 -19t27 -67q0 -27 -11 -45.5t-29 -30.5t-40.5 -17.5t-46.5 -5.5q-19 0 -40.5 3.5t-36.5 9.5l16 51q11 -3 25.5 -6.5t29.5 -3.5q22 0 42 10.5t20 36.5q0 12 -5.5 19t-14.5 10.5t-20 4.5t-22 1t-22.5 -1t-18.5 -3
l30 98h-11v585h-155l-12 82h431z" />
    <glyph glyph-name="uni0163" unicode="&#xe033;" horiz-adv-x="313" 
d="M287 8q-18 -6 -41 -12t-53 -6q-5 0 -8.5 0.5t-7.5 0.5l-11 -37q2 1 6.5 1h8.5q37 0 64 -19t27 -67q0 -27 -11 -45.5t-29 -30.5t-40.5 -17.5t-46.5 -5.5q-19 0 -40.5 3.5t-36.5 9.5l16 51q11 -3 25.5 -6.5t29.5 -3.5q22 0 42 10.5t20 36.5q0 12 -5.5 19t-14.5 10.5
t-20 4.5t-22 1t-22.5 -1t-18.5 -3l31 103q-16 10 -25 26t-13 35.5t-4.5 42t-0.5 45.5v302h-72l-7 72h81v125h92v-125h98l-12 -72h-86v-308q0 -39 6 -60t32 -21q17 0 29 3t21 6z" />
    <glyph glyph-name="fi" unicode="&#xf001;" horiz-adv-x="505" 
d="M446 684q-1 -25 -17 -42t-42 -17q-25 0 -42.5 17t-17.5 42t17.5 42.5t42.5 17.5t42 -17.5t17 -42.5zM340 0v456h-158v-456h-93v456h-72l-7 72h79v72q0 29 4.5 54.5t17.5 45t34.5 31t56.5 11.5q32 0 51.5 -4t31.5 -6l-9 -75q-10 2 -23.5 5t-25.5 3q-33 0 -39 -18t-6 -57
v-62h251v-528h-93z" />
    <glyph glyph-name="fi" unicode="&#xfb01;" horiz-adv-x="505" 
d="M446 684q-1 -25 -17 -42t-42 -17q-25 0 -42.5 17t-17.5 42t17.5 42.5t42.5 17.5t42 -17.5t17 -42.5zM340 0v456h-158v-456h-93v456h-72l-7 72h79v72q0 29 4.5 54.5t17.5 45t34.5 31t56.5 11.5q32 0 51.5 -4t31.5 -6l-9 -75q-10 2 -23.5 5t-25.5 3q-33 0 -39 -18t-6 -57
v-62h251v-528h-93z" />
    <glyph glyph-name="fl" unicode="&#xf002;" horiz-adv-x="505" 
d="M340 0v659q-18 2 -44.5 4.5t-50.5 2.5q-20 0 -32 -3t-19 -11t-9.5 -23t-2.5 -40v-61h84l-11 -72h-73v-456h-93v456h-72l-7 72h79v73q0 44 10 71.5t29 43t46.5 21t62.5 5.5q18 0 45.5 -2.5t56.5 -6.5t54.5 -7.5t39.5 -5.5v-720h-93z" />
    <glyph glyph-name="fl" unicode="&#xfb02;" horiz-adv-x="505" 
d="M340 0v659q-18 2 -44.5 4.5t-50.5 2.5q-20 0 -32 -3t-19 -11t-9.5 -23t-2.5 -40v-61h84l-11 -72h-73v-456h-93v456h-72l-7 72h79v73q0 44 10 71.5t29 43t46.5 21t62.5 5.5q18 0 45.5 -2.5t56.5 -6.5t54.5 -7.5t39.5 -5.5v-720h-93z" />
    <glyph glyph-name="commaaccent" unicode="&#xf6c3;" horiz-adv-x="500" 
d="M295 -95q0 -17 -7.5 -36.5t-19.5 -40t-26.5 -41t-28.5 -39.5l-34 22q10 16 21.5 38.5t11.5 39.5q0 9 -3.5 16t-7.5 13.5t-7.5 15t-3.5 20.5q0 23 16 37t36 14q25 0 39 -16.5t14 -42.5z" />
    </font>
</defs>
</svg>
